<?xml version="1.0" standalone="no"?>
<!DOCTYPE svg PUBLIC "-//W3C//DTD SVG 1.1//EN" "http://www.w3.org/Graphics/SVG/1.1/DTD/svg11.dtd" >
<svg xmlns="http://www.w3.org/2000/svg" xmlns:xlink="http://www.w3.org/1999/xlink" version="1.1">
<metadata>
Created by FontForge 20170731 at Wed Sep  7 21:06:13 1932
 By Aleksey,,,
More Services
</metadata>
<defs>
<font id="KrutiDev050Wide" horiz-adv-x="7" >
  <font-face 
    font-family="Kruti Dev 055"
    font-weight="400"
    font-stretch="normal"
    units-per-em="1000"
    panose-1="0 0 0 0 0 0 0 0 0 0"
    ascent="800"
    descent="-200"
    x-height="220"
    cap-height="494"
    bbox="-643 -270 758 800"
    underline-thickness="20"
    underline-position="-163"
    unicode-range="U+0020-2122"
  />
<missing-glyph horiz-adv-x="800" 
d="M50 0v800h700v-800h-700zM700 50v700h-600v-700h600z" />
    <glyph glyph-name=".notdef" horiz-adv-x="800" 
d="M50 0v800h700v-800h-700zM700 50v700h-600v-700h600z" />
    <glyph glyph-name=".null" horiz-adv-x="0" 
 />
    <glyph glyph-name="nonmarkingreturn" horiz-adv-x="437" 
 />
    <glyph glyph-name="space" unicode=" " horiz-adv-x="437" 
 />
    <glyph glyph-name="exclam" unicode="!" horiz-adv-x="327" 
d="M212 189l-11 400l52 -22v-400zM240 -2l-53 43l53 42l52 -42z" />
    <glyph glyph-name="quotedbl" unicode="&#x22;" horiz-adv-x="251" 
d="M308 177q-4 -4 -27 -17l-36 -11l-38 -3q-16 0 -24 2l-24 7l-25 12q-15 7 -24 17q-49 37 -49 77v180h-54l-24 53h340v-53h-196l190 -166l4 -11l2 -14v-52q-3 -12 -15 -21zM298 251l-2 7l-4 8l-7 7l-158 137v-200q0 -22 14 -28l20 -4l31 -1h23q8 2 18 5t31 11l26 19
q4 6 8 18v21z" />
    <glyph glyph-name="numbersign" unicode="#" horiz-adv-x="452" 
d="M217 441v-147l17 11l21 9l11 3l11 2l21 2q24 0 41 -5t33 -17q32 -19 41 -59l3 -18l-3 -25q-3 -24 -19 -54l-19 -28l-53 21l19 23l17 27l12 25l5 19q0 63 -53 63q-30 0 -62 -16q-25 -8 -34 -17l-16 -11l-8 -9q-9 -24 -34 -36l-20 -9l-23 -7l211 -178l-28 -12l-197 169
q-65 57 -70 93l5 9l7 8l9 5l13 2q7 0 22 -6l28 -17l11 -3q10 0 20 10q7 16 7 36v137h-157l-26 53h472l28 -53h-263z" />
    <glyph glyph-name="dollar" unicode="$" horiz-adv-x="377" 
d="M210 210v-143l-53 19v124h-140l-14 41h154v139l53 -14v-125h141l15 -41h-156z" />
    <glyph glyph-name="percent" unicode="%" horiz-adv-x="270" 
d="M182 283l-54 42l54 42l51 -42zM182 10l-54 41l54 43l51 -43z" />
    <glyph glyph-name="ampersand" unicode="&#x26;" horiz-adv-x="686" 
d="M32 210l-25 41h631l28 -41h-634z" />
    <glyph glyph-name="quotesingle" unicode="'" horiz-adv-x="472" 
d="M317 441l28 -24q9 -7 21 -27l12 -30l5 -30q0 -15 -3 -29.5t-10 -31.5q-27 -66 -96 -102q-30 -15 -72 -24l140 -146l-25 -19l-144 158q-59 0 -91 30l-7 12l-2 18l1 13l4 11l7 7q5 3 11 3l20 -3l20 -9l9 -7l10 -9l9 -11l9 -14h15q14 0 25 3t24 11l18 12l32 28q7 6 20 30
l-19 3l-13 3q-51 11 -72 23q-26 12 -56 34l-8 8l-8 11l-4 6l-4 7l-8 21l-2 20q0 27 22 43l-132 1l-25 53h512l26 -53h-199zM322 384q-6 39 -43 57q-15 9 -39 9q-16 0 -26 -5q-23 -6 -35 -35q-6 -14 -6 -33q0 -57 75 -80q21 -6 45 -6h14q7 0 10 2l7 23q3 9 3 29q0 25 -5 39z
" />
    <glyph glyph-name="parenleft" unicode="(" horiz-adv-x="278" 
d="M182 283l-54 42l54 42l51 -42zM238 10l-28 -29l-39 -33l-43 -32v31l54 51v33l-36 43l49 42q36 -25 48 -63l4 -23q0 -5 -9 -20z" />
    <glyph glyph-name="parenright" unicode=")" horiz-adv-x="696" 
d="M563 441v-105h-157q-39 0 -66 -21q-9 -8 -19 -23q-6 -13 -8 -31q0 -53 38 -80.5t104 -27.5l28 3l-7 8l-3 9l-3 8v9q0 24 27 29q31 0 46 -16q20 -12 20 -34q0 -7 -2 -11l-4 -8l-8 -8l-12 -7l130 -168l-25 -11l-105 127q-16 -38 -70 -74q-31 -20 -73 -29l-27 -2
q-56 0 -85 21q-11 7 -22 21q-6 12 -8 29q0 22 10 33l-60 -2l-58 3q-45 0 -71 42q-10 18 -10 40t16.5 41.5t39.5 28.5q17 5 37 5q38 0 56 -19l13 -21q3 -9 5 -26q0 -21 -7 -36l-15 -34l22 -2l16 3l34 11l22 6l24 2l27 -19l-28 -18l-20 -16l-14 -16l-4 -15q0 -9 5 -17l16 -13
l22 -10l23 -2q10 0 21 2t26 9q63 29 102 94l10 21l-9 -2l-11 -1l-28 2l-33 6q-23 3 -31 8l-22 9q-53 21 -83 55q-13 15 -24 33q-9 18 -9 39q0 46 42 75q30 21 63 27l25 2l120 1v63h-500l-28 53h708l28 -53h-157zM204 182q-3 8 -11 13l-16 7l-17 3l-18 -3q-6 0 -14 -7
q-11 -6 -11 -29q0 -14 2 -19l7 -17l12 -11l18 -4q23 0 39 16l9 16l4 19q0 9 -4 16z" />
    <glyph glyph-name="asterisk" unicode="*" horiz-adv-x="298" 
d="M258 525l-27 -29l-40 -34l-44 -32v32l54 54v31l-35 42l49 42q26 -18 39 -40q13 -18 13 -45q0 -6 -9 -21z" />
    <glyph glyph-name="plus" unicode="+" 
d="M-242 -106l-53 42l53 42l54 -42z" />
    <glyph glyph-name="comma" unicode="," horiz-adv-x="501" 
d="M531 -69l-2 -6l-3 -4l-5 -5l-25 -22l-39 31l2 5l2 4l2 6l3 8l2 5l-2 7l-4 6l-8 6l-288 144l-60 33q-18 15 -19 28v264h-80l-24 53h513l25 -53h-118v-252q-1 -10 -7 -16l-9 -6l-10 -1l-92 1l-39 31h73l9 6l6 7q3 3 3 8v222h-184v-252q0 -33 39 -54l310 -158l16 -14l10 -14
l4 -14z" />
    <glyph glyph-name="hyphen" unicode="-" horiz-adv-x="260" 
d="M201 10l-54 41l54 43l52 -43z" />
    <glyph glyph-name="period" unicode="." horiz-adv-x="415" 
d="M326 441v-210q0 -39 -32 -60.5t-78 -21.5q-93 0 -130 53q-4 8 -7 18t-3 20v201h-66l-26 53h458v-53h-116zM272 441h-144v-231q0 -15 17 -25l20 -6l27 -2q16 0 28 4q30 3 46 29q6 9 6 20v211z" />
    <glyph glyph-name="slash" unicode="/" horiz-adv-x="288" 
d="M281 441l-28 53h134v-53h-106zM353 146l-41 -17l-43 -11l-41 -3q-19 0 -44 8.5t-56 27.5q-54 33 -58 68q0 27 17 47l22 20l28 18l-22 8q-18 7 -27 12q-28 13 -43 30q-33 27 -33 73q0 33 31 48l23 11l25 6h9l8 1q40 0 72 -19q15 -8 25 -22t10 -33t-32 -45l-15 -11l-16 -9
l-31 -11l26 -18h120l40 -63l-38 7l-42 3q-18 0 -41 -3.5t-35 -11.5q-29 -12 -29 -48q0 -27 19 -46q7 -7 24 -13l36 -4q71 0 143 48q20 13 43 36v-63q-17 -14 -34 -21zM145 457l-23 4q-23 0 -40 -18l-11 -20l-3 -24q0 -14 2 -18l7 -14q9 -12 31 -12q29 0 48 19t19 43
q0 29 -30 40z" />
    <glyph glyph-name="zero" unicode="0" horiz-adv-x="558" 
d="M384 149q-51 -45 -106 -45q-74 0 -115 39q-30 30 -39 69l-3 28q0 42 29 79.5t71 56.5q27 12 57 12q66 0 112 -33t46 -94q0 -66 -52 -112zM316 345q-22 10 -38 10q-29 0 -48.5 -6.5t-36.5 -18.5q-10 -10 -19 -29q-2 -6 -4.5 -16.5t-3.5 -17.5q0 -42 31 -79q13 -16 35 -29
q16 -7 46 -13h27q91 0 91 84q0 74 -80 115z" />
    <glyph glyph-name="one" unicode="1" horiz-adv-x="462" 
d="M330 -61q0 -6 -7 -12l-6 -5l-5 -3l-6 -2l-5 -1q-46 0 -68 31q15 0 19 2l16 6q5 1 11 9l4 9l-3 8l-8 8l-221 178l116 107q-15 0 -35 7l-46 25q-30 16 -47 39.5t-17 42.5q0 31 23 53.5t58 33.5q14 3 26 5t27 2q29 0 74 -36q51 -44 51 -99v-13l-1 -4v-4l-3 -9l-5 -13
l-155 -157l205 -166l6 -10l3 -9l2 -9zM228 407q-3 12 -16 19l-25 10l-31 4q-25 0 -48 -24l-14 -25l-4 -25q0 -30 21 -51l24 -17q7 -2 13.5 -3.5t18.5 -1.5q23 0 43 30l17 28q6 14 6 26q0 20 -5 30z" />
    <glyph glyph-name="two" unicode="2" horiz-adv-x="558" 
d="M436 -75l-158 222l-20 -2h-20l-14 4q-38 12 -56 37q-6 9 -8 23v19l2 14q3 10 10 15l13 12l13 4q20 0 32 -15l22 -39l26 -2q18 0 25.5 1.5t25.5 7.5q41 15 71 75q10 30 10 54q0 39 -35 65q-38 20 -93 20l-36 -2l-31 -3l-33 -7l-36 -9l-39 32l25 14l33 11l37 6l43 2l33 -1
q31 0 73 -18q63 -27 87 -85q4 -12 7 -27t3 -29q0 -52 -39 -95t-104 -74l143 -208z" />
    <glyph glyph-name="three" unicode="3" horiz-adv-x="558" 
d="M451 144q-18 -43 -77 -72l-57 -22l93 -103l-28 -11l-104 115l-42 3q-41 6 -67 33q-9 12 -9 28q0 17 10 27q5 6 12 9l16 4q11 0 20.5 -3.5t23.5 -13.5l21 -18l15 -16l19 -1q35 0 59.5 12.5t43.5 42.5q8 14 10 30q0 50 -45 67l-33 6l-159 1l-27 54h132l39 3q38 9 56 34
q6 9 9 24q0 22 -24 40q-13 7 -17 8t-15 1l-48 4l-146 1l-39 52h173q26 0 55 -12q50 -16 86 -73q13 -18 13 -45q0 -10 -4 -21l-9 -19l-15 -17l-21 -14l32 -20q13 -8 29.5 -24.5t24.5 -32.5l5 -17q0 -25 -11 -44z" />
    <glyph glyph-name="four" unicode="4" horiz-adv-x="558" 
d="M337 256l99 -67l16 -17l14 -17l8 -19l3 -21q0 -30 -44 -53q-16 -9 -46 -15.5t-55 -6.5q-97 0 -136 64q-10 23 -10 42l1 15q0 10 5 18l8 17l12 13l66 60l-262 182l12 23l269 -190l219 199l25 -42zM415 158l-3 12l-7 9l-9 9l-79 53l-65 -63l-7 -10l-5 -13l-3 -15v-16
q6 -36 47 -48l33 -3h12q7 0 17 2l29 6l22 9q9 6 13 13l5 17l2 20q0 12 -2 18z" />
    <glyph glyph-name="five" unicode="5" horiz-adv-x="538" 
d="M462 -64l-105 242q-10 -10 -21 -15l-25 -10l-15 -4l-14 -1l-15 -2h-15q-84 0 -137 50q-25 24 -36.5 50.5t-11.5 57.5v22l3 35l8 42l13 41l16 38l53 -41l-18 -40l-12 -38l-7 -39l-2 -42q0 -45 23 -72q27 -33 83 -33h30l12 2l27 7q17 6 21 33l-8 18l-2 18l3 18q3 10 8 16
l3 3l3 4l8 6l11 2q23 0 38 -16q7 -10 10 -20l4 -22q0 -18 -4 -27l-9 -22l105 -241z" />
    <glyph glyph-name="six" unicode="6" horiz-adv-x="558" 
d="M462 -64l-80 126l-30 -1q-50 0 -89 9.5t-78 32.5q-78 45 -78 116l3 22l8 19l16 17q6 7 26 16q-11 5 -18.5 9t-16.5 11q-21 17 -30 30l-21 30l-7 24q0 32 34 58.5t85 26.5l146 1l64 -52h-198q-14 0 -26 -3.5t-21 -12.5q-10 -5 -15 -17l-4 -21q0 -49 48 -60l32 -2l145 1
l39 -54h-159q-33 -9 -55 -34q-11 -11 -17 -26l-5 -25q0 -35 38 -58l20 -12l20 -8l20 -5l20 -1l26 1q13 2 19 5l10 7l4 11l-1 8l-3 7l-4 6l-2 8v7l3 13q3 6 10 9l12 4l11 2q27 0 50 -23l17 -24q6 -12 6 -25l-2 -13l-4 -10l-8 -8l-12 -5l77 -126z" />
    <glyph glyph-name="seven" unicode="7" horiz-adv-x="558" 
d="M478 114q-48 -74 -146 -74q-127 0 -215 148q-76 131 -76 273q0 24 14 24l8 -6l4 -18q0 -131 63 -238q79 -130 202 -130q40 0 65 11q85 36 85 136q-13 -9 -35 -15t-39 -6q-42 0 -81.5 23t-48.5 62l-6 27l-2 25q0 31 22 49l27 10l38 4q75 0 117 -50.5t42 -115.5
q0 -82 -38 -139zM463 342q-3 12 -15 24q-16 22 -55 22q-54 0 -82 -43q-6 -12 -6 -30q0 -24 23 -44q10 -8 25 -16l29 -5q32 0 51 10q34 15 34 55v16q-3 8 -4 11z" />
    <glyph glyph-name="eight" unicode="8" horiz-adv-x="558" 
d="M402 32q-42 -22 -87 -32q-9 -2 -24 -2l-44 3q-24 0 -60 17q-40 17 -55 32l-26 25l-19 24l-11 22l-4 20l1 13l3 10l6 11l11 13l303 295l27 -42l-302 -301l-3 -15q0 -41 60 -70l25 -10q15 -3 28 -5t24 -2h13q7 0 10 2q84 11 170 95l39 -30q-13 -34 -85 -73z" />
    <glyph glyph-name="nine" unicode="9" horiz-adv-x="577" 
d="M486 -29q-9 -17 -38 -27l-21 -4q-15 0 -26 9q-3 1 -8 12l-2 17q15 0 26 9l6 9q3 5 3 11l-2 13l-6 16l-8 14l-7 11l-288 264l-7 14l-5 13l-1 14q0 22 11.5 42t38.5 39q17 12 52 26q24 9 53 9q12 0 26.5 -0.5t36.5 -7.5q60 -18 84 -60q12 -21 12 -48q0 -25 -18 -48
q-36 -45 -112 -69q-27 -9 -54 -9l236 -189l10 -12l9 -14l6 -18l3 -18q-3 -11 -10 -18zM348 407q0 5 -1 9.5t-7 15.5q-9 14 -42 18q-65 0 -102 -37q-14 -14 -23 -35q-3 -10 -5 -20.5t-2 -22.5l3 -16l8 -13l13 -10l17 -3q61 0 103 23t42 61v18z" />
    <glyph glyph-name="colon" unicode=":" horiz-adv-x="637" 
d="M221 441v-116l19 -12l22 -4l22 3q13 3 26 11l51 24l31 8q14 0 38 -6t38 -16l19 -13l19 -14q64 -58 122 -191l-25 1q-62 116 -104.5 152t-106.5 36q-34 0 -52.5 -16t-24.5 -46q0 -17 16 -32l19 -10l28 -3l10 1l17 5l16 4l11 2l26 -42q-5 -5 -14 -9l-21 -6l-23 -5l-22 -1
q-11 0 -17 1t-18 7q-36 22 -52 61q-6 20 -6 43v14q0 7 2 10h-33l-17 1l-4 1l-4 2l-4 3l-4 4q0 -47 -31 -77l-27 -17l-35 -11l212 -178l-27 -12l-196 169q-19 15 -55 51q-17 23 -17 42l5 9l7 8l9 5l12 2q8 0 23 -6l27 -17l12 -3q10 0 20 10q7 16 7 36v137h-155l-28 53h658
l25 -53h-446z" />
    <glyph glyph-name="semicolon" unicode=";" horiz-adv-x="562" 
d="M463 442v-444l-58 33v155l-28 -19l-32 -12l-35 -8l-34 -2q-18 0 -36.5 2t-39.5 9q-71 21 -112 78q-15 27 -15 59l90 30q42 14 42 54l-3 22q0 9 -7 17l-13 14q-5 6 -16 10l-159 1l-27 53h570l27 -53zM405 441h-180l13 -15l9 -14l6 -16l2 -17l-1 -18l-3 -17q-1 -8 -12 -19
l-28 -22q-25 -15 -40 -21l-43 -16q0 -29 43 -56q20 -11 42.5 -18t44.5 -7h27l12 2l35 9l35 16l38 25v204z" />
    <glyph glyph-name="less" unicode="&#x3c;" horiz-adv-x="491" 
d="M397 441v-125h-196q-51 0 -78 -20.5t-27 -76.5q0 -67 39 -106q14 -14 42 -29q17 -8 59 -16l-2 10l-3 23l-3 25l-1 19q0 68 45 88q21 7 45 7q20 0 29 -1t24 -7q49 -16 71 -58q10 -22 10 -39q0 -37 -16 -62q-11 -16 -27.5 -27t-41.5 -21q-21 -6 -49 -6q-109 0 -192 72
t-83 170q0 35 35 63q25 20 84 29l40 2l145 1v85h-343l-25 53h512l26 -53h-119zM346 188q-45 0 -67 -22t-22 -61l1 -22q0 -11 4 -18l14 -3l17 -1q22 0 44 5t45 17q35 18 41 52q0 53 -77 53z" />
    <glyph glyph-name="equal" unicode="=" horiz-adv-x="436" 
d="M341 441v-443l-54 33v156l-194 -104l-38 33l232 123v26q-13 10 -30 19t-39 15l-40 12l-37 4q-45 0 -74 -22l-39 43l15 7l22 7l28 3l39 2l10 -1h11l31 -6q16 -3 25 -6t30 -13l18 -11q21 -13 30 -22v145h-285l-24 53h454l28 -53h-119z" />
    <glyph glyph-name="greater" unicode="&#x3e;" horiz-adv-x="606" 
d="M507 441v-443l-52 33v187l-15 -6l-22 -4l-13 -2l-27 -2h-12l-24 1q-12 0 -19 4q29 -24 29 -63q0 -37 -43 -67q-24 -17 -66 -31l-36 -8l130 -115l-25 -9l-135 117l-20 -1l-16 1l-14 2q-9 2 -12 5l-21 11l-14 15l-10 18l-3 19q0 32 35 32l9 -1l10 -3l9 -6l10 -8l13 -16
l14 -19l11 -4l15 -1q17 0 35 5t43 19q35 20 41 54l-3 24q0 9 -7 17q-6 12 -25 12l-18 -3l-28 -7l-29 -8l-20 -2q-13 0 -26 5l-30 16q-21 15 -38 33l-11 15l-11 26l-4 26q0 46 52 62q20 6 39 6l119 1v63h-262l-26 53h616l27 -53h-120zM455 441h-129v-105h-173q-11 0 -18 -3
t-18 -13l-11 -17l-4 -21q0 -22 23 -38l26 -11l31 -3l12 2l17 2h8l6 1h4l29 -1l39 -3l34 -2l21 -1l28 1q11 0 27 5l8 2l24 12l16 12v181z" />
    <glyph glyph-name="question" unicode="?" horiz-adv-x="288" 
d="M316 149l-49 -11l-59 -3q-16 0 -24 1.5t-24 6.5q-50 15 -84 62q-13 20 -13 45l6 20q4 9 14 17l20 14l25 12l-34 22l-23 25q-24 26 -24 59l4 22h-39l-28 53h394v-53h-222q-13 0 -23 -5q-18 -6 -27 -28l-3 -20q0 -22 14 -36q14 -12 43 -21l102 -16l25 -53l-16 6l-26 7
l-30 5l-20 2q-53 0 -85 -41l-7 -22q0 -42 56 -60l36 -4q18 0 25 1.5t21 6.5q37 12 59 25l47 27q16 9 31 25v-51q-21 -30 -62 -40z" />
    <glyph glyph-name="at" unicode="@" horiz-adv-x="616" 
d="M173 -32h-41l291 528h40z" />
    <glyph glyph-name="A" unicode="A" horiz-adv-x="306" 
d="M253 41v453l54 -32v-464z" />
    <glyph glyph-name="B" unicode="B" horiz-adv-x="525" 
d="M377 441q9 -4 16 -13l13 -19l4 -11l3 -10l2 -12l1 -10q0 -25 -20 -52l-15 -20l-4 -9l3 -6l11 -6q39 -21 64 -53l20 -34l7 -31q0 -95 -110 -126q-15 -4 -34.5 -7t-39.5 -3q-50 0 -106 28t-92 69q-21 24 -27 50l-2 30q0 17 5.5 30t19.5 29q27 29 74 36l76 12l77 13l10 4
l13 14q5 5 11 19l4 24q0 63 -63 63l-291 1l-24 53h537l27 -53h-170zM422 211q-18 50 -111 50q-80 0 -139.5 -19.5t-59.5 -64.5q0 -77 75 -97q15 -3 31.5 -5t38.5 -2q85 0 121 15q52 21 52 78q0 29 -8 45z" />
    <glyph glyph-name="C" unicode="C" horiz-adv-x="300" 
d="M12 441l-28 53h383v-53h-355zM338 154l-35 -17l-40 -10l-43 -3q-18 0 -32 1.5t-32 5.5q-66 15 -92 59q-13 24 -13 50q0 54 57 90t113 36q14 0 28 -3t34 -11l22 -13q44 -23 62 -57v-104q-16 -17 -29 -24zM345 282q-15 30 -60 45q-18 6 -40 6t-37 -3.5t-26 -14.5l105 -137
q22 0 46 27l15 22l5 23q0 19 -8 32zM156 305q-16 -5 -28 -14l-20 -21l-14 -24l-4 -27q0 -47 58 -65l38 -4l18 1l20 3l19 5l19 7z" />
    <glyph glyph-name="D" unicode="D" horiz-adv-x="500" 
d="M372 441v-179l23 18l21 16q30 22 51 22q23 0 33 -2l22 -3l5 -2l6 -2l22 -12l-22 -3l-27 -8l-13 -4l-16 -8q-14 0 -40 -21l-20 -19l-26 -28l-19 -22v-186l-54 33v134q-56 -30 -138 -30q-56 0 -94 36q-35 37 -35 86q0 41 30.5 69.5t84.5 28.5q58 0 100 -21q9 -5 15 -9
t13 -11l24 -25v152h-311l-24 53h569l26 -53h-206zM318 266q-34 23 -67 36q-6 2 -25 7.5t-34 5.5q-45 0 -74 -22q-31 -19 -31 -53q0 -32 23 -55q11 -9 27 -15l36 -4l19 1l20 2l19 4l19 6l36 15l32 21v51z" />
    <glyph glyph-name="E" unicode="E" horiz-adv-x="313" 
d="M167 210v-54q0 -15 -16 -19l-16 4l-18 14l-66 64q-3 6 -3 14q0 13 28 17l41 1v190h-105l-28 53h383v-53h-200v-190h211v-41h-211z" />
    <glyph glyph-name="F" unicode="F" horiz-adv-x="321" 
d="M330 441l-29 53h114v-53h-85zM345 139l-41 -10l-39 -3q-15 0 -28.5 1t-28.5 5q-39 9 -64.5 23t-51.5 37q-17 18 -34 48q11 2 20 4t23 7l36 13q41 15 66 40q-63 0 -108 30q-50 30 -50 63q0 67 67 89q26 7 53 7q22 0 31.5 -1t26.5 -7q54 -15 75 -62q10 -25 10 -46t-17 -45
q-20 -31 -54 -55l-55 -38q-6 -4 -20.5 -10t-24.5 -10q5 -27 35 -46q12 -8 32 -14l38 -4h10l11 1l31 6l33 12q26 9 44 23l44 33v-52q-35 -30 -70 -39zM252 423q-3 14 -15 26q-18 24 -47 24q-54 -6 -72 -43q-7 -18 -7 -33q0 -9 8 -20l26 -25l34 -23l34 -14l18 20l10 12l6 10
l5 11l3 10l1 10v23z" />
    <glyph glyph-name="G" unicode="G" horiz-adv-x="666" 
d="M561 441v-115q23 -6 39 -21q36 -26 50 -85l2 -22q0 -56 -39 -102t-106 -46q-83 0 -124 50q-13 16 -21 35q-16 -35 -59 -62q-19 -11 -34.5 -16.5t-35.5 -5.5l-15 -1q-69 0 -116 51q-21 24 -31 51t-10 57q0 62 75 94q49 19 91 19q32 0 46 -5q42 -5 74 -35q14 -14 24 -34
q11 21 25 36q41 51 97 51v106h-486l-27 53h686l25 -53h-130zM599 278q-5 5 -25 11l-42 4q-36 0 -70.5 -27t-58.5 -62q-5 -7 -9 -15q-8 -14 -17 -34q0 -7 6 -19q12 -15 50 -28l35 -4q99 0 133 58q11 20 11 47q0 55 -13 69zM305 274l-33 6l-42 2q-49 0 -85 -36
q-12 -12 -26 -38q-8 -22 -8 -42q0 -18 4 -30t16 -25q7 -10 24 -19l36 -10h16q28 0 49 10.5t44 38.5l20 32l37 66q-6 29 -52 45z" />
    <glyph glyph-name="H" unicode="H" horiz-adv-x="372" 
d="M318 441l-38 53h155v-53h-117zM252 210v-54l-3 -10l-8 -2h-7l-6 2l-8 4l-7 5l-67 55l-15 15l-4 12q0 6 4 9l15 4l54 1v65q-51 0 -101 25q-58 31 -58 78q0 43 59 68q15 6 33 6q43 0 83 -34q10 -9 15 -14.5t14 -18.5q5 -12 7 -29v-146h183v-41h-183zM200 420l-3 14
q-2 6 -7 9l-17 5l-27 2q-18 0 -31 -13l-6 -17l-2 -23q0 -37 40 -55l19 -8l34 -4v90z" />
    <glyph glyph-name="I" unicode="I" horiz-adv-x="230" 
d="M250 163q-63 0 -113 41.5t-50 88.5v148h-80l-24 53h340v-53h-182v-179q0 -25 23 -44l25 -16l29 -5l22 3l31 9l24 9l28 12v-41q-28 -26 -73 -26z" />
    <glyph glyph-name="J" unicode="J" horiz-adv-x="543" 
d="M452 441v-443l-52 33v155l-258 -155l-41 31l264 158v21l-9 -1l-9 1q-22 0 -36 7l-26 10l-59 24l-44 -28l-47 -25l-25 -12l-24 -11l-25 -10q-8 0 -24 -8l-40 32l59 24l22 10l52 25l42 25l-52 24l-37 24q-15 10 -28 28q-5 10 -8 29q0 26 30 53q37 31 90 31q23 0 53 -11.5
t50 -29.5q42 -36 42 -64q0 -13 -3.5 -22.5t-13.5 -20.5l-21 -24l-27 -24l153 -46v190h-74l-29 53h248l27 -53h-120zM192 461h-12q-21 0 -42 -15q-10 -7 -18 -21l-5 -28q0 -9 6 -23l16 -19l26 -20l34 -18l25 22l20 24l12 22l4 24q0 52 -66 52z" />
    <glyph glyph-name="K" unicode="K" horiz-adv-x="501" 
d="M437 441v-443l-52 33v275h-255l47 -30l39 -28q57 -51 57 -81q0 -39 -50 -73q-19 -14 -42.5 -22.5t-39.5 -8.5l131 -107l-12 -20l-158 128l-12 -1l-11 2q-9 0 -12 2l-11 4q-12 3 -21 9l-12 13l-6 14l-2 16q0 22 21 22q34 0 52 -31l14 -4l13 -1q18 0 31 5.5t30 16.5
q27 18 31 47q0 33 -43 73q-39 33 -102 54q-20 3 -28 8l-19 9l-11 10l-3 10q1 2 2 4.5t4 5.5l19 4l359 1v84h-378l-27 53h550l27 -53h-120z" />
    <glyph glyph-name="L" unicode="L" horiz-adv-x="372" 
d="M432 204l-19 -4l-25 -2l-33 -1h-26l-18 4q-17 3 -43 15l-19 9l-14 10l-12 9l-6 9q-8 -24 -37 -45l-23 -12l-26 -8l211 -178l-26 -12l-198 169q-71 60 -71 93l5 9l8 8l9 5l12 2q8 0 23 -6l27 -17l4 -3l7 -1q30 0 30 47v137h-159l-26 53h460v-53h-222v-147l-3 -11
q5 -13 13 -21l21 -13l26 -8l33 -2h11l21 2l39 6l26 5l35 9v-51z" />
    <glyph glyph-name="M" unicode="M" horiz-adv-x="537" 
d="M430 441v-105h-223l-23 -7l-17 -10l-11 -16l-3 -21q0 -9 6 -18l18 -13q13 -6 26 -9l29 -2l24 3l27 1q33 0 78 -9q57 -14 100 -55q17 -15 21 -34l1 -13q0 -21 -8.5 -39t-29.5 -36q-44 -39 -122 -39q-69 0 -163 55q-74 43 -125 103l-5 10l2 8q3 3 10 3l4 -1l6 -2l4 -3l5 -4
q30 -36 54 -54q37 -29 97 -49q23 -7 46 -10t42 -3l23 2l40 3q67 12 67 58q0 32 -19 47q-6 4 -25 11l-33 4l-45 -2l-55 -6l-21 -1q-19 0 -52 20q-15 9 -30 24l-23 29l-14 28l-5 27q0 61 84 61l185 1v63h-370l-24 53h552l26 -53h-131z" />
    <glyph glyph-name="N" unicode="N" horiz-adv-x="608" 
d="M482 441v-67q46 -15 70 -55q14 -23 20 -56l1 -23q0 -93 -92 -160q-85 -61 -183 -61q-22 0 -45 3t-48 10q-57 15 -82 44q-15 15 -21 39q0 23 15 41l16 17l20 15q-39 6 -72 35q-15 12 -24 27q-6 14 -9 32q0 55 78 78q21 6 46 6q47 0 74 -20v-30l-36 5l-29 2q-11 0 -20 -0.5
t-19 -4.5q-33 -3 -48 -31q-5 -11 -7 -26q0 -19 28 -37l29 -11l32 -3q17 0 22 2l20 7l67 1l26 -53h-79q-79 0 -79 -63q0 -19 39 -43l36 -16l29 -5q24 0 35.5 1t31.5 7q58 15 119 61l47 46q-58 17 -113 56q-24 17 -41 37q-10 16 -13 34q0 30 31 57q15 14 32.5 22.5t43.5 15.5
v64h-423l-24 53h619l25 -53h-145zM528 299q-6 27 -34 40q-18 7 -37 7q-66 0 -66 -64q0 -70 68 -98q14 -3 25 -5t22 -2l10 19l9 22l5 25l2 26v18z" />
    <glyph glyph-name="O" unicode="O" horiz-adv-x="305" 
d="M12 441l-28 53h394v-53h-366zM345 156l-40 -17l-44 -11l-40 -4q-63 0 -116 39q-26 20 -41 44q-13 26 -13 54q0 48 57 81q35 18 74 24l30 4q47 0 93.5 -20.5t72.5 -56.5v-19l-51 24l-40 15l-35 8l-31 3q-67 0 -109 -51q-9 -15 -9 -33q0 -29 13 -52q9 -16 35 -28l31 -5
q20 0 49.5 6.5t49.5 17.5l50 27q13 6 47 34v-62z" />
    <glyph glyph-name="P" unicode="P" horiz-adv-x="357" 
d="M10 441l-26 53h458v-53h-432zM380 149l-50 -11l-58 -3l-33 3q-16 3 -33 12l-17 9l-16 11q-48 33 -48 75q0 27 28 48l-77 1l-28 42h289l28 -42h-105l-15 -3q-9 0 -16 -4l-16 -9l-15 -10q-14 -11 -23 -25q-4 -8 -8 -24q0 -39 56 -60l37 -4q18 0 25 1.5t21 6.5q37 12 59 25
l47 27q16 10 30 25v-51q-21 -30 -62 -40z" />
    <glyph glyph-name="Q" unicode="Q" horiz-adv-x="652" 
d="M372 441v-186l30 28l28 21q28 20 68 20q24 0 44.5 -13.5t40.5 -39.5q6 -9 13.5 -23.5t11.5 -24.5q9 -23 9 -46q0 -17 -3.5 -29t-15.5 -30l-21 -32q-6 -10 -25 -25l-40 44l26 29l22 32q9 14 13 29l5 24q0 14 -5 22q-4 21 -33 35l-28 6q-13 0 -19 -1t-21 -6.5t-36 -20.5
l-37 -33l-27 -37v-186l-54 33v154q-12 -9 -31 -15.5t-37 -6.5q-63 0 -113 41.5t-50 88.5v148h-80l-24 53h660l32 -53h-303zM318 441h-177v-179q0 -25 23 -44l25 -16l29 -5l25 4l38 12l17 7l20 8v213z" />
    <glyph glyph-name="R" unicode="R" horiz-adv-x="302" 
d="M13 441l-25 53h367v-53h-342zM211 305q-24 0 -39 -6q-32 -4 -47 -32q-5 -11 -7 -27q0 -49 19 -88t52 -83l48 -50l-26 1l-48 54l-46 56q-51 62 -51 118q0 49 40.5 73.5t91.5 24.5l157 1v-42h-144z" />
    <glyph glyph-name="S" unicode="S" horiz-adv-x="3" 
d="M-118 494l-39 35l-21 14l-22 12l-41 16q-17 6 -35 6l-50 -2l-56 56l4 8l8 7l14 5l16 2l15 -1q8 0 10 -2q21 -6 52 -21.5t62 -40.5l49 -39l35 -34l-6 17l-7 18l-6 17l-6 18q-8 19 -19 33l-24 32q-18 24 -50 28l-12 -2l-15 -3l-29 74q0 9 5 14q7 4 11 5l16 -4l19 -9l21 -16
l22 -22l32 -45l29 -51q17 -29 30 -67l14 -59z" />
    <glyph glyph-name="T" unicode="T" horiz-adv-x="406" 
d="M10 441l-26 53h512v-53h-486zM287 305l40 -37l28 -32l10 -15l7 -14l4 -15l2 -15q0 -35 -36 -62q-15 -10 -32.5 -16t-37.5 -6q-54 0 -129.5 59.5t-94.5 140.5q0 8 2 11l7 4q11 0 19 -15q22 -66 79 -109q19 -15 45 -28q27 -10 46 -10q37 0 58.5 18.5t21.5 44.5
q0 12 -8.5 25.5t-31.5 36.5q-12 11 -21 18q-17 13 -32 21l-66 36l329 1v-42h-209z" />
    <glyph glyph-name="U" unicode="U" horiz-adv-x="243" 
d="M7 441l-24 53h340v-53h-316zM153 241v-52q0 -21 -15 -24l-11 3l-15 9l-51 54l-11 14l-4 13q0 24 41 24l236 1v-42h-170z" />
    <glyph glyph-name="V" unicode="V" horiz-adv-x="442" 
d="M346 441v-190h-134q-58 0 -97 -36q-17 -15 -26 -34q-5 -15 -7 -33q0 -12 11 -23l37 -20l43 -15l39 -5h38l17 2l46 7q15 2 21 5l21 8l20 9l21 11l27 -41q-10 -8 -31 -19l-41 -13l-45 -9l-45 -2q-34 0 -53.5 2.5t-50.5 11.5q-61 19 -86 58q-16 26 -16 54q0 45 40 84.5
t92 39.5l105 1v147h-289l-25 53h499l26 -53h-157z" />
    <glyph glyph-name="W" unicode="W" 
d="M-30 601l-46 -20q-23 -6 -44 -6q-38 0 -85.5 29.5t-71.5 75.5q3 8 12 10q13 -14 15 -16q6 -6 14 -11l30 -21l44 -20q21 -6 42 -6q15 0 28 5l35 17l34 24q11 12 22 28l38 -30q-14 -27 -67 -59z" />
    <glyph glyph-name="X" unicode="X" horiz-adv-x="305" 
d="M208 441v-243q0 -36 -22 -36q-15 0 -30 15l-76 74l-3 10q0 12 26 12l53 1v167h-144l-28 53h394v-53h-170z" />
    <glyph glyph-name="Y" unicode="Y" horiz-adv-x="438" 
d="M3 441l-25 53h525v-53h-500zM482 296l-17 2q-49 0 -84 -31q-27 -19 -40 -49l-9 -21l-54 13l4 10l6 13l9 14l10 14q-5 14 -16 24l-26 17q-20 8 -32 9l-32 4q-93 0 -93 -106q0 -25 15 -47.5t44 -47.5l46 -39l53 -35l35 -21l9 -12l-2 -4l-5 -3l-5 -1l-6 -1l-7 2l-3 1l-16 8
l-49 31l-44 31q-76 60 -104 117q-12 26 -12 52q0 54 32 84.5t84 30.5q14 0 19 -2l20 -3l19 -7l19 -8l27 -18l26 -20l8 -8l9 -8q8 11 23 20l28 17l22 9l24 6l23 2q15 0 29.5 -4t33.5 -16v-21q-16 0 -21 2z" />
    <glyph glyph-name="Z" unicode="Z" 
d="M-7 631l-23 17l-25 9l-24 4q-45 0 -60 -34l-6 -30q0 -51 41 -104l-28 1l-14 15l-18 31l-13 33l-8 24l-2 25q0 14 1.5 20t6.5 17q20 56 87 56q36 0 62 -23l11 -10l10 -11l11 -15l10 -16v-30z" />
    <glyph glyph-name="bracketleft" unicode="[" horiz-adv-x="521" 
d="M565 171l-30 -12l-33 -8l-32 -2q-23 0 -44.5 3.5t-42.5 12.5q-47 21 -69 56q-13 28 -13 52q0 40 44 66q28 18 74 25q10 2 26 2l21 -1l22 -2l21 -5q33 -4 56 -22q12 -6 27 -21v-32q-62 32 -134 32q-39 0 -70 -18.5t-35 -46.5q0 -24 25 -50l6 -6l7 -4l20 -10l22 -3h22l16 4
l25 6l17 8l24 10l19 10l36 25v-51zM533 45l-56 -20l-54 -12l-56 -4q-21 0 -43.5 5.5t-50.5 18.5q-97 44 -182 153q-26 33 -40 75q0 13 26 17h6l8 -2l11 -2l7 -3l8 -2l6 -4l8 -4l11 3l14 11l10 14l4 15v137h-158l-25 53h605v-53h-370v-136l-3 -33l-8 -26q-10 -21 -66 -69
q9 -13 17.5 -23.5t20.5 -22.5l45 -37l31 -20l32 -13l30 -9l32 -2q31 0 59 4.5t66 16.5q61 21 114 64v-61z" />
    <glyph glyph-name="backslash" unicode="\" horiz-adv-x="512" 
d="M454 354q-10 -18 -36 -48l-43 -47l-34 -32l-69 -61l-39 32q59 46 78 67l56 55q27 27 49 70q16 35 16 60q0 46 -38 75q-27 20 -67 27l-26 2q-46 0 -72 -17q-14 -6 -21 -13l-41 32q3 8 25 21l30 14l48 14l31 4q80 0 131 -50.5t51 -108.5l-1 -24q-3 -31 -28 -72zM287 10
l-54 41l54 43l53 -43z" />
    <glyph glyph-name="bracketright" unicode="]" horiz-adv-x="278" 
d="M238 -10l-7 -9l-21 -21l-39 -33l-43 -33v31l54 53v32l-36 41l49 43q26 -18 39 -40q13 -18 13 -45q-1 -3 -3 -8t-6 -11z" />
    <glyph glyph-name="asciicircum" unicode="^" horiz-adv-x="278" 
d="M201 547v-31l36 -42l-49 -43q-51 29 -51 84q0 7 8 18l27 29l38 34l43 34v-32z" />
    <glyph glyph-name="underscore" unicode="_" horiz-adv-x="647" 
d="M332 441v-159q39 9 67 32t28 59q0 28 25 28q12 0 15 -2l13 -6l40 -19l12 -10l5 -8q0 -6 -7 -13l-17 -14l-13 -8l-24 -13q0 -18 10 -31l16 -15l30 -16l35 -38q-32 0 -55 -6q-31 -3 -54 -17q-31 -19 -31 -43q0 -5 6 -16l17 -13l11 -6l11 -4l10 -2l11 -1l25 1q12 0 23 4
l26 6l33 9l28 -38q-10 -6 -35 -14l-38 -4q-64 0 -113 26q-36 18 -48 45q-6 14 -6 27q0 22 24 45q12 12 28 18l37 14q-24 9 -39 53l-16 -8l-20 -11l-36 -22l-34 -22v-231l-54 33v151l-185 -99l-38 33l223 118v37l-30 15l-35 15l-37 10l-35 4q-45 0 -74 -22l-39 43l15 7l22 7
l28 3l39 2l20 -1l20 -3q10 0 19 -4l20 -6q16 -3 35 -17l32 -20v137h-276l-24 53h695l32 -53h-373z" />
    <glyph glyph-name="grave" unicode="`" 
d="M-23 -131l-17 -4l-22 -2l-30 -1q-33 0 -58.5 5t-46.5 18q-54 26 -54 71q0 37 46 60.5t101 23.5l38 -42q-65 0 -104 -15q-40 -17 -40 -47l6 -14l17 -14l22 -10l20 -4q19 0 27 2l27 5l29 9l22 6l27 -42z" />
    <glyph glyph-name="a" unicode="a" horiz-adv-x="3" 
d="M-60 578l-52 42l52 42l50 -42z" />
    <glyph glyph-name="b" unicode="b" horiz-adv-x="406" 
d="M320 441v-105h-173q-11 -2 -20 -8l-16 -13l-11 -17l-4 -16q0 -31 38 -41l24 -3l18 3l34 3q57 0 107 -37q38 -29 41 -52q0 -39 -46 -76q-37 -27 -104 -44l125 -110l-26 -9l-135 117l-22 -1l-14 1l-14 2l-14 5l-20 12q-9 6 -16 16l-11 18l-3 19q0 7 2 11l7 10l12 7l17 2
l10 2l12 -3l12 -6l6 -5l6 -6l15 -19l5 -16l10 -4l15 -1q33 0 74 22.5t46 55.5l-3 18l-8 11l-15 6l-19 2l-15 -1l-24 -1l-27 -2h-20q-10 0 -23 5l-28 15q-13 6 -33 24q-23 26 -36 56l-4 27q0 62 85 62l130 1v63h-264l-24 53h418l29 -53h-106z" />
    <glyph glyph-name="c" unicode="c" horiz-adv-x="522" 
d="M416 441v-443l-54 33v143q-29 -29 -64 -38l-39 -9l-39 -3q-18 0 -32 1.5t-32 5.5q-66 15 -92 59q-13 24 -13 50q0 54 57 90t113 36q35 0 79 -24t62 -53v152h-350l-28 53h523l28 -53h-119zM345 282q-15 30 -60 45q-18 6 -40 6t-37 -3.5t-26 -14.5l105 -137q22 0 46 27
l15 22l5 23q0 19 -8 32zM156 305q-16 -5 -28 -14l-20 -21l-14 -24l-4 -27q0 -47 58 -65l38 -4l18 1l20 3l19 5l19 7z" />
    <glyph glyph-name="d" unicode="d" horiz-adv-x="663" 
d="M372 441v-177l29 24l32 19l33 12l35 5q44 0 81.5 -51.5t37.5 -95.5q0 -14 -12 -42t-29 -48q-10 -13 -26 -26l-38 44l26 30l21 31l14 28l5 25q0 14 -5 22q-3 12 -13 22q-9 17 -43 21q-20 0 -44 -9q-16 -6 -38 -22l-37 -33q-14 -15 -29 -38v-184l-52 33v134l-15 -8l-16 -6
l-16 -5l-15 -4l-35 -6l-43 -1q-57 0 -93 36t-36 86q0 41 30.5 69.5t84.5 28.5q62 0 102 -22q16 -6 27 -19q13 -9 25 -26v153h-313l-24 53h675l28 -53h-314zM320 266q-37 25 -71 37t-57 12q-45 0 -74 -22q-31 -19 -31 -53q0 -32 23 -55q11 -9 27 -15l36 -4l19 1l20 2l19 4
l19 6l36 15q14 6 34 22v50z" />
    <glyph glyph-name="e" unicode="e" horiz-adv-x="522" 
d="M427 441v-443l-54 32v180h-211v-54q0 -15 -17 -19l-16 4q-9 4 -18 14l-65 64l-4 14q0 13 28 17l41 1v190h-105l-28 53h540l28 -53h-119zM373 441h-211v-190h211v190z" />
    <glyph glyph-name="f" unicode="f" horiz-adv-x="215" 
d="M468 552l-80 41q-68 34 -141 34q-62 0 -103.5 -20.5t-41.5 -63.5v-16l1 -13l3 -12l6 -9l100 1l28 -53h-119v-441l-54 33v408h-64l-25 53h89l-7 10l-5 19l-4 21l-1 19q0 48 45.5 77t124.5 29q44 0 101 -18q33 -12 62.5 -25t52.5 -28l41 -26l73 -49v-10z" />
    <glyph glyph-name="g" unicode="g" horiz-adv-x="458" 
d="M378 441v-105h-225q-14 0 -23 -5l-17 -9q-6 -6 -9 -15l-3 -18l3 -20q4 -10 11 -18l17 -13l21 -6q17 10 38 15l26 5h20q25 0 36 -1.5t24 -6.5q64 -14 93 -56q13 -21 13 -42q0 -29 -23 -52l-26 -16l-28 -5l-8 1l-10 5l-3 4l-8 9l-2 9l3 5q30 0 42 11l8 18l4 31q0 34 -20 43
q-27 10 -86 10q-28 0 -56 -23t-37 -61l-2 -27q0 -42 45 -76l19 -10l26 -12l67 -19l27 -6l30 -7v-22q-22 0 -42 4.5t-51 14.5q-113 33 -160 93q-25 33 -25 67l3 24l9 24q7 14 14 22l18 17l-12 4l-8 5l-19 12l-16 18q-24 27 -24 54q0 14 7 25q9 20 50 32q16 3 22.5 4t21.5 1
l173 1v63h-316l-26 53h473l25 -53h-104z" />
    <glyph glyph-name="h" unicode="h" horiz-adv-x="237" 
d="M142 441v-443l-62 33v410h-64l-27 53h102q0 32 -8 56q-18 52 -68 76q-27 11 -57 11t-57 -24l-10 -12l-7 -12l-4 -13l-2 -12q0 -24 -17 -27l-7 2l-8 8l-5 9l-2 8q0 46 32.5 81t86.5 35q64 0 116 -58t52 -129l109 1l27 -53h-120z" />
    <glyph glyph-name="i" unicode="i" horiz-adv-x="471" 
d="M366 441v-443l-54 33v155q-28 -23 -70 -23q-59 0 -109 40q-27 22 -39.5 43t-12.5 47v148h-80l-26 53h482l29 -53h-120zM312 441h-179v-179q0 -40 50 -59q14 -6 29 -6q16 0 21 2l24 7l27 10l28 13v212z" />
    <glyph glyph-name="j" unicode="j" horiz-adv-x="336" 
d="M225 441v-147q0 -49 -32 -78l-27 -17l-34 -11l211 -178l-27 -12l-198 169q-37 32 -52 52t-18 41l5 9l8 8l9 5l12 2q8 0 23 -6l27 -17l11 -3l11 1l9 9l6 15l3 21v137h-159l-25 53h342l25 -53h-130z" />
    <glyph glyph-name="k" unicode="k" horiz-adv-x="215" 
d="M121 441v-443l-54 33v410h-64l-25 53h247l27 -53h-131z" />
    <glyph glyph-name="l" unicode="l" horiz-adv-x="596" 
d="M498 441v-443l-52 36v175l-22 -8l-27 -3l-26 -1h-42l-18 4q-17 3 -43 15l-19 9l-14 10l-12 9l-6 9q-8 -24 -37 -45l-23 -12l-26 -8l211 -178l-26 -12l-198 169q-71 60 -71 93l5 9l8 8l9 5l12 2q8 0 23 -6l27 -17l4 -3l7 -1q30 0 30 47v137h-159l-26 53h604l26 -53h-119z
M446 441h-221v-147l-3 -11q5 -13 13 -21l21 -13l26 -8l33 -2h11l21 2l39 6l23 5l37 9v180z" />
    <glyph glyph-name="m" unicode="m" horiz-adv-x="456" 
d="M322 441q63 -35 63 -92q0 -27 -19 -47l-24 -17l-34 -12q60 -21 100 -64q29 -30 33 -63q0 -47 -60 -85l-37 -17l-37 -11q-14 0 -19 -2l-18 -1q-61 0 -124 42q-74 48 -118 116l-4 8l-1 7l3 10l11 4q7 0 12 -5l9 -15q29 -48 83 -85q4 -3 18 -11.5t34 -17.5q30 -10 50 -10
q50 0 92 27q40 28 40 66q0 30 -47 64q-28 20 -71 29l-27 2q-15 0 -21 -2q-13 0 -29 -4l-28 -4l-14 -1l-27 55q11 0 16 2l16 2l10 -1l22 -2q18 0 24 -2h18q46 0 72.5 17t32.5 45q0 16 -3.5 29.5t-11.5 22.5l-8 9l-6 7l-8 4l-7 2l-272 1l-26 53h472l28 -53h-158z" />
    <glyph glyph-name="n" unicode="n" horiz-adv-x="456" 
d="M361 441v-125h-131q-53 0 -91.5 -22t-38.5 -75q0 -47 51.5 -82.5t115.5 -35.5l30 4l-4 8l-1 14l3 17q6 18 22 28l19 5q32 0 46 -15q8 -6 12 -17l4 -21q0 -11 -2 -16l-6 -13l-12 -10l-16 -6l79 -113l-14 -9l-90 112l-27 -2q-45 0 -87.5 11.5t-86.5 40.5q-89 59 -89 142
q0 35 35 63q25 20 81 29l39 2l106 1v85h-302l-26 53h472l28 -53h-119z" />
    <glyph glyph-name="o" unicode="o" horiz-adv-x="522" 
d="M430 441v-443l-53 33v146l-34 -23l-40 -16l-42 -11l-40 -3q-14 0 -28.5 2t-31.5 8q-69 21 -97 73q-13 26 -13 54q0 48 57 81q35 18 74 24l30 4q46 0 94 -21q26 -12 40 -24q14 -8 31 -30v146h-365l-28 53h538l26 -53h-118zM377 274l-49 23l-41 16l-35 8l-31 3
q-67 0 -109 -51q-9 -15 -9 -33q0 -29 13 -52q9 -16 35 -28l31 -5q46 0 101 26q32 15 71 40l23 17v36z" />
    <glyph glyph-name="p" unicode="p" horiz-adv-x="587" 
d="M492 441v-443l-52 33v154q-21 -28 -63 -37l-49 -10l-56 -3l-33 3q-16 3 -33 12l-17 9l-16 11q-48 33 -48 75q0 27 28 48l-77 1l-28 42h289l28 -42h-105l-15 -3q-9 0 -16 -4l-16 -9l-15 -10q-14 -11 -23 -25q-4 -8 -8 -24q0 -39 56 -60l37 -4q43 0 101 31l46 25
q21 11 33 26v204h-430l-26 53h601l27 -53h-120z" />
    <glyph glyph-name="q" unicode="q" horiz-adv-x="3" 
d="M-67 -161q-8 -3 -18.5 -6t-37.5 -7.5t-40.5 -5t-21.5 -0.5q-29 0 -65 9l-8 2q-51 12 -83 31l-61 34q-27 15 -58 40l12 11l51 -34l61 -29q55 -23 114 -31l37 -2q26 0 42 3t37 13q38 18 41 49l-3 27q-2 10 -11 19l-6 7l-7 5l-6 3l-6 1h-8l-9 -1l-16 -4l-18 -7l-9 -5
l-21 -14l-52 31l13 13q4 4 18 9l23 7l27 2q15 0 34 -5q7 -1 13 -3t19 -8l17 -10l16 -12q15 -12 34 -34q8 -13 11 -32q0 -43 -55 -66z" />
    <glyph glyph-name="r" unicode="r" horiz-adv-x="506" 
d="M405 441v-443l-53 33v274h-141q-24 0 -39 -6q-32 -4 -47 -32q-5 -11 -7 -27q0 -49 19 -88t52 -83l48 -50l-26 1l-48 54l-46 56q-51 62 -51 118q0 49 40.5 73.5t91.5 24.5l154 1v94h-340l-28 53h513l26 -53h-118z" />
    <glyph glyph-name="s" unicode="s" horiz-adv-x="2" 
d="M-118 497q-46 61 -98 106l-54 40q-14 7 -31 10l-67 1l-65 74h78q19 0 48 -18q42 -27 70 -55l74 -73q16 -16 33 -36t39 -50z" />
    <glyph glyph-name="t" unicode="t" horiz-adv-x="632" 
d="M547 441v-445l-51 35v274h-209l40 -37l28 -32l10 -15l7 -14l4 -15l2 -15q0 -35 -36 -62q-15 -10 -32.5 -16t-37.5 -6q-54 0 -129.5 59.5t-94.5 140.5q0 8 2 11l7 4q11 0 19 -15q22 -66 79 -109q19 -15 45 -28q27 -10 46 -10q37 0 58.5 18.5t21.5 44.5q0 12 -8.5 25.5
t-31.5 36.5q-12 11 -21 18q-17 13 -32 21l-66 36l329 1v94h-485l-27 53h656l27 -53h-120z" />
    <glyph glyph-name="u" unicode="u" horiz-adv-x="475" 
d="M376 441v-443l-54 33v210h-169v-52q0 -21 -15 -24l-11 3l-15 9l-51 54l-11 14l-4 13q0 24 41 24l235 1v158h-315l-24 53h484l28 -53h-119z" />
    <glyph glyph-name="v" unicode="v" horiz-adv-x="718" 
d="M607 441v-443l-54 33v187l-11 -6l-21 -2l-29 -1h-30l-22 1l-23 5l-21 7l-14 8l8 -21l3 -20q0 -47 -45 -82q-32 -24 -77 -32l-34 -2q-34 0 -60 11q-48 18 -96 58t-79 88l1 7l5 8l7 6l8 2l3 -2q21 -42 52 -67q25 -21 59 -37l34 -14q29 -9 66 -9q29 3 42 11q46 18 53 74
l-3 26q-9 30 -25 40l-26 7l-19 -2l-27 -6q-20 -3 -31 -10l-28 -14l-52 44l-3 4l10 8q13 6 29 9l43 7l52 2l20 9q9 6 16 16l12 19l5 20q0 16 -8 27q-12 24 -53 33l-22 5h-16l-33 -2q-12 0 -25 -5l-20 -7l-20 -12l-15 -8l-38 43l21 13l30 10l33 6l34 2q21 0 31 -1t34 -8
q68 -21 104 -64q15 -20 15 -43q0 -13 -4 -24l-8 -22q-11 -20 -40 -38q12 -2 25 -8l41 -17l39 -14l38 -4l23 1l30 6l30 7l22 8v169h-130l-27 52h327l24 -52h-140z" />
    <glyph glyph-name="w" unicode="w" 
d="M117 -190l-172 126l-29 16l-22 9l-6 2l-7 1l-12 3h-14q-79 0 -79 -73l1 -7l4 -8l5 -6l7 -8l17 -10l19 -4l32 3l33 18l14 2h12l25 -23q-3 -6 -12 -12l-19 -10l-22 -7l-23 -2q-15 0 -25.5 1t-26.5 7q-33 10 -56 37t-23 60q0 15 7 32q13 30 54 45q21 7 45 7q57 0 102 -42
l199 -157h-28z" />
    <glyph glyph-name="x" unicode="x" horiz-adv-x="483" 
d="M411 441v-443l-54 33v410h-149v-243q0 -36 -22 -36q-15 0 -30 15l-76 74l-3 10q0 12 26 12l53 1v167h-144l-28 53h503l28 -53h-104z" />
    <glyph glyph-name="y" unicode="y" horiz-adv-x="675" 
d="M483 441v-95q49 -6 87 -31q47 -30 47 -75q0 -58 -61 -112q-42 -36 -98 -55l-26 32q41 17 86 59q11 11 15.5 17t15.5 23.5t14 35.5l3 18q0 13 -5 22q-6 20 -36 31l-28 4q-30 0 -68 -21q-69 -38 -89 -97l-53 13l2 11l8 14l8 12l6 8q-12 29 -41 44l-15 7l-16 5l-16 3l-15 1
q-15 0 -38 -9q-30 -15 -45 -57q-8 -21 -8 -40q0 -38 58 -95l43 -37l54 -37l15 -8l15 -9l11 -9l4 -7l-2 -4l-4 -3l-6 -1l-4 -1l-6 2l-4 1l-19 8q-107 67 -156 121q-25 28 -41 58q-12 27 -12 52q0 49 33 82t86 33q34 0 75 -21q20 -8 36 -23q20 -14 34 -30l22 20l23 16
q16 11 29 15l31 9v100h-420l-28 53h682l27 -53h-210z" />
    <glyph glyph-name="z" unicode="z" horiz-adv-x="3" 
d="M-358 6l-39 32l276 182v-53z" />
    <glyph glyph-name="braceleft" unicode="{" horiz-adv-x="356" 
d="M353 441l-27 53h134v-53h-107zM444 264l-23 -7l-27 -6l-29 -1h-24l-13 2l-41 7l-45 11q-18 3 -45 16l-45 -27l-29 -20q-28 -19 -33 -51q0 -60 65 -79l38 -4q18 0 30 2t25 8l-9 14l-8 14l-6 13l-2 13q0 6 6 14l19 5q25 0 45 -10l14 -9l24 -18q9 -6 9 -16q0 -8 -4 -12
l-10 -11l-14 -10l-11 -9l91 -115l-39 -11l-80 116l-17 -7l-21 -1h-21l-11 2l-32 9l-32 13l-32 18q-70 40 -70 102q0 14 14.5 28.5t38.5 27.5l20 10l40 19q-13 6 -16 7q-14 7 -29 16l-37 27q-8 7 -12 12t-10 14.5t-9 28.5q0 33 38.5 58.5t80.5 25.5q41 0 94 -39
q33 -26 47 -57l4 -20q0 -8 -7 -18l-18 -20l-13 -11l-15 -10l-17 -12l-18 -10l28 -8l29 -5l31 -3l34 -1h27q8 1 19.5 3t30.5 8q29 9 48 34v-50zM243 424q-4 24 -33 33l-28 4q-33 0 -65 -24l-12 -12l-9 -12l-5 -13l-1 -12q0 -11 4 -18.5t17 -17.5l24 -19l33 -18l28 16
q5 3 12.5 8t12.5 9l20 21l7 19q0 23 -5 36z" />
    <glyph glyph-name="bar" unicode="|" horiz-adv-x="590" 
d="M490 441v-443l-53 33v71q-26 -18 -47 -24l-63 -19l-65 -15l-54 -4q-24 0 -45.5 8.5t-44.5 28.5q-41 36 -41 78l3 16l10 17q11 18 26 21q-8 0 -15 4l-15 8l-16 11l-15 15q-9 9 -23 34q-5 16 -7 34q0 39 36 56l30 6l131 1v63h-212l-26 53h598l25 -53h-117zM437 441h-162
v-105h-159q-51 0 -51 -43q0 -20 16 -39q7 -10 20 -16l29 -8l145 1l25 -42h-117q-13 0 -21.5 -3.5t-18.5 -13.5l-10 -18l-3 -21q0 -30 16 -49q7 -8 21 -17q12 -6 29 -6q38 0 110 24.5t131 65.5v290z" />
    <glyph glyph-name="braceright" unicode="}" horiz-adv-x="481" 
d="M371 441v-105h-144q-29 0 -56 -11.5t-41 -32.5q-9 -14 -9 -31q0 -51 51 -80q13 -7 53 -20q30 -6 67 -6l-7 15l-5 15l-4 13l-1 8q0 24 32 24l13 -1l14 -3q8 -2 12 -5l14 -7q21 -10 25 -26l-3 -17q0 -6 -7 -14l-13 -12l-16 -10l131 -168l-26 -11l-73 95q-9 -15 -25 -28
l-35 -23q-35 -22 -78 -22q-47 0 -86 10l-22 9q-50 18 -50 64q0 15 13.5 28.5t34.5 22.5l45 17q15 6 37 6q-56 20 -99 58q-21 18 -33.5 39.5t-12.5 40.5q0 44 42 74t92 30l116 1v63h-314l-25 53h499l26 -53h-132zM334 113l-17 11l-20 3q-14 0 -49 -9q-64 -18 -98 -49
q-12 -12 -15 -29q0 -15 2 -20l6 -13l16 -7l28 -2q16 0 27.5 1t28.5 7q54 16 86 59q12 15 12 32q0 9 -7 16z" />
    <glyph glyph-name="asciitilde" unicode="~" 
d="M56 -190q-60 61 -125 99t-98 38h-51l-42 51h80q27 -6 62 -24q22 -12 41 -24t35 -26l65 -55q27 -22 58 -59h-25z" />
    <glyph glyph-name="c142" horiz-adv-x="251" 
 />
    <glyph glyph-name="c143" horiz-adv-x="251" 
 />
    <glyph glyph-name="c144" horiz-adv-x="587" 
d="M200 420l-3 14q-2 6 -7 9l-17 5l-27 2q-18 0 -31 -13l-6 -17l-2 -23q0 -37 40 -55l19 -8l34 -4v90zM430 441h-77l-26 53h260l28 -53h-132v-443l-53 33v179h-178v-54l-3 -10l-8 -2h-7l-6 2l-8 4l-7 5l-67 55l-15 15l-4 12q0 6 4 9l15 4l54 1v65q-51 0 -101 25
q-58 31 -58 78q0 43 59 68q15 6 33 6q43 0 83 -34q10 -9 15 -14.5t14 -18.5q5 -12 7 -29v-146h178v190z" />
    <glyph glyph-name="nonbreakingspace" unicode="&#xa0;" horiz-adv-x="437" 
 />
    <glyph glyph-name="exclamdown" unicode="&#xa1;" 
d="M-121 658l-40 32l40 32l41 -32zM-6 593l-23 -14l-46 -20q-21 -6 -42 -6q-36 0 -85 30t-74 74l1 4l4 3l3 2l6 2q24 -30 45 -42l11 -6l22 -12l22 -8l23 -5l22 -1q12 0 25 5l32 16q40 19 59 53l39 -30q-16 -25 -44 -45z" />
    <glyph glyph-name="cent" unicode="&#xa2;" horiz-adv-x="2" 
d="M-328 497q-46 61 -98 106l-54 40q-14 7 -31 10l-67 1l-65 74h78q19 0 48 -18q42 -27 70 -55l74 -73q16 -16 33 -36t39 -50z" />
    <glyph glyph-name="sterling" unicode="&#xa3;" horiz-adv-x="693" 
d="M517 159q-28 -10 -57 -10t-39 1.5t-26 6.5q-61 18 -91 64q-13 28 -13 52q0 41 44 66q29 18 74 25l27 2l40 -3l39 -9q32 -6 57 -37v-32q-45 20 -91 28l-33 2q-39 0 -70 -18.5t-35 -46.5q0 -25 25 -50q17 -18 55 -23q21 0 37 5l42 16l33 19l37 25v-51q-26 -19 -55 -32z
M758 441h-131v-443l-54 33v410h-361v-136q0 -32 -8 -49q-6 -21 -22 -37l-18 -17l-32 -25q15 -19 38 -38l51 -30l34 -13l24 -7l64 -7l66 1q31 0 47 4l34 7q15 3 26 10l66 32v-53l-277 -105l-39 32l77 31q-89 0 -188 78q-89 71 -114 142q0 13 26 17h6l8 -2l11 -2l7 -3l8 -2
l6 -4l8 -4q17 0 29 19l7 12l3 12v137h-158l-24 53h753z" />
    <glyph glyph-name="currency" unicode="&#xa4;" horiz-adv-x="15" 
d="M36 -248l-19 -7q-10 -4 -21.5 -6.5t-27.5 -4.5l-47 -4q-26 0 -47.5 4.5t-51.5 18.5q-43 21 -46 48l1 16l2 14l2 4v4l3 7l2 6l3 4l2 3l-24 10l-18 7q-39 19 -43 44q0 19 19 38q7 7 54 29l14 4l17 4l20 5l23 3l57 -36l-44 -4l-33 -6q-80 -15 -80 -45q0 -8 8 -15
q4 -6 22 -13l13 -4l18 -5l10 5l9 3l23 8l18 4l44 7l41 -47h-20q-13 0 -21 -2q-19 0 -30 -5q-74 -12 -74 -55q0 -11 22 -17l28 -3l37 -2q18 0 36 5q23 3 46 13l19 8l26 10l35 -47z" />
    <glyph glyph-name="yen" unicode="&#xa5;" horiz-adv-x="635" 
d="M6 441l-26 53h675l37 -53h-171v-443l-54 33v179h-86q-12 -39 -45 -60q-41 -26 -106 -26q-11 0 -24 0.5t-32 7.5q-50 17 -97 55q-11 9 -21 18.5t-24 24.5l2 7l3 8l2 3l2 2l4 2q55 -52 94 -75q41 -22 78 -22q50 0 84.5 27.5t34.5 67.5q0 30 -13 52q-6 6 -17 9l-24 4l-9 -1
q-7 0 -9 -2l-10 -3l-9 -5l-21 -14q-16 -9 -22 -17l-52 32q23 41 106 41q28 0 45 -8q44 -12 69 -50q11 -17 15 -38l82 1v190h-461z" />
    <glyph glyph-name="section" unicode="&#xa7;" horiz-adv-x="15" 
d="M36 -248l-19 -7q-10 -4 -21.5 -6.5t-27.5 -4.5l-47 -4q-26 0 -47.5 4.5t-51.5 18.5q-43 21 -46 48l1 16l2 14l2 4v4l3 7l2 6l3 4l2 3l-24 10l-18 7q-39 19 -43 44q0 19 19 38q7 7 54 29l14 4l17 4l20 5l23 3l57 -36l-44 -4l-33 -6q-80 -15 -80 -45q0 -8 8 -15
q4 -6 22 -13l13 -4l18 -5l10 5l9 3l23 8l18 4l44 7l41 -47h-20q-13 0 -21 -2q-19 0 -30 -5q-74 -12 -74 -55q0 -11 22 -17l28 -3l37 -2q18 0 36 5q23 3 46 13l19 8l26 10l35 -47z" />
    <glyph glyph-name="dieresis" unicode="&#xa8;" horiz-adv-x="215" 
d="M225 494l27 -53h-131v-443l-54 33v410h-64l-25 53h98l-49 57l-44 49l-39 32q-26 18 -45 21l-67 1l-65 74h78q20 0 49 -19q19 -13 35 -26.5t31 -29.5l67 -71q13 -14 35 -39.5t40 -49.5z" />
    <glyph glyph-name="copyright" unicode="&#xa9;" horiz-adv-x="215" 
d="M225 494l27 -53h-131v-443l-54 33v410h-64l-25 53h105q-86 83 -147 83l-49 -2l-57 56l4 8l9 7l13 5l17 2l15 -1q8 0 10 -2q21 -6 39 -14.5t41 -23.5l32 -24l47 -39l36 -34l-6 17l-6 18l-7 17l-6 18q-8 18 -19 33l-23 32l-4 4l-2 3q-21 21 -42 21l-13 -2l-15 -3l-28 74
q0 9 5 14q7 4 11 5l16 -4l19 -9l20 -16l20 -22l29 -42l30 -54q6 -10 12.5 -25.5t15.5 -40t17 -60.5z" />
    <glyph glyph-name="ordfeminine" unicode="&#xaa;" 
d="M-93 -169l-112 123l-125 -80l-25 31l144 93l121 -136z" />
    <glyph glyph-name="guillemotleft" unicode="&#xab;" horiz-adv-x="278" 
d="M-22 494h312l27 -53h-315zM311 200l-218 -117l-38 33l232 123v26q-13 10 -30 19t-39 15l-40 12l-37 4q-45 0 -74 -22l-39 43l15 7l22 7l28 3l39 2l10 -1h11l31 -6q16 -3 25 -6t30 -13l18 -11q7 -5 12.5 -8t17.5 -14l24 -21v-75z" />
    <glyph glyph-name="registered" unicode="&#xae;" horiz-adv-x="215" 
d="M225 494l27 -53h-131v-443l-54 33v410h-64l-25 53h98l-49 57l-44 49l-39 32q-26 18 -45 21l-67 1l-65 74h78q20 0 49 -19q19 -13 35 -26.5t31 -29.5l67 -71q13 -14 35 -39.5t40 -49.5z" />
    <glyph glyph-name="plusminus" unicode="&#xb1;" 
d="M-4 635l-20 14l-23 8l-24 3q-31 0 -52 -15q-22 -19 -22 -48q0 -51 41 -104l-28 1l-14 15l-18 31l-13 33l-8 24l-2 25q0 14 1.5 20t6.5 17q20 56 87 56q24 0 36 -3.5t25 -13.5l23 -21l20 -27v-30zM-41 536l-39 31l39 31l39 -31z" />
    <glyph glyph-name="threesuperior" unicode="&#xb3;" horiz-adv-x="558" 
d="M528 241l-51 42l51 42l54 -42zM423 441v-105h-225q-52 0 -52 -54q0 -19 16 -38l20 -11l28 -4l17 2q18 0 26 2l30 1q73 0 133.5 -27.5t60.5 -60.5q0 -25 -8 -42q-15 -50 -75 -73q-33 -12 -77 -12q-75 0 -164 55q-71 44 -125 103l-3 10l2 8q3 3 10 3l8 -3l10 -7
q59 -68 122 -93q57 -22 140 -22q46 0 79.5 15t39.5 47q0 19 -5 28q-5 20 -35 27l-30 3l-24 -1l-34 -3q-26 0 -34 -2l-22 -1l-25 3q-13 0 -26 4l-28 15q-34 24 -51 51l-12 26l-4 24q0 46 53 62q20 6 39 6l173 1v63h-369l-24 53h589l26 -53h-170z" />
    <glyph glyph-name="acute" unicode="&#xb4;" horiz-adv-x="635" 
d="M6 441l-26 53h675l37 -53h-171v-443l-54 33v179h-86q-12 -39 -45 -60q-41 -26 -106 -26q-11 0 -24 0.5t-32 7.5q-50 17 -97 55q-11 9 -21 18.5t-24 24.5l2 7l3 8l2 3l2 2l4 2q55 -52 94 -75q41 -22 78 -22q50 0 84.5 27.5t34.5 67.5q0 30 -13 52q-6 6 -17 9l-24 4l-9 -1
q-7 0 -9 -2l-10 -3l-9 -5l-21 -14q-16 -9 -22 -17l-52 32q23 41 106 41q28 0 45 -8q44 -12 69 -50q11 -17 15 -38l82 1v190h-461z" />
    <glyph glyph-name="paragraph" unicode="&#xb6;" horiz-adv-x="471" 
d="M372 441v-178q59 61 126 61l14 -39q-36 0 -77 -31l-35 -33l-28 -37v-186l-54 33v154q-12 -9 -31 -15.5t-37 -6.5q-63 0 -113 41.5t-50 88.5v148h-80l-24 53h660l32 -53h-303zM318 441h-177v-179q0 -25 23 -44l25 -16l29 -5l25 4l38 12l17 7l20 8v213z" />
    <glyph glyph-name="periodcentered" unicode="&#xb7;" horiz-adv-x="387" 
d="M166 441q-39 0 -39 -32q0 -27 104.5 -102.5t104.5 -129.5q0 -40 -24.5 -72t-61.5 -45q-13 -4 -28.5 -7t-30.5 -3q-46 0 -79.5 13.5t-62.5 45.5q-16 16 -28 37l-5 16l1 4l5 2l11 -6l14 -16q24 -34 72 -49l33 -4q66 0 92.5 25.5t26.5 69.5q0 29 -25 64q-20 26 -80 76
l-79 66q-23 23 -26 36q0 23 28 44q29 19 63 19l235 1l28 -53h-249z" />
    <glyph glyph-name="periodcentered" unicode="&#x2219;" horiz-adv-x="387" 
d="M166 441q-39 0 -39 -32q0 -27 104.5 -102.5t104.5 -129.5q0 -40 -24.5 -72t-61.5 -45q-13 -4 -28.5 -7t-30.5 -3q-46 0 -79.5 13.5t-62.5 45.5q-16 16 -28 37l-5 16l1 4l5 2l11 -6l14 -16q24 -34 72 -49l33 -4q66 0 92.5 25.5t26.5 69.5q0 29 -25 64q-20 26 -80 76
l-79 66q-23 23 -26 36q0 23 28 44q29 19 63 19l235 1l28 -53h-249z" />
    <glyph glyph-name="cedilla" unicode="&#xb8;" horiz-adv-x="298" 
d="M374 168l-31 -13l-33 -8l-34 -2q-18 0 -36.5 2t-39.5 9q-71 21 -112 78q-15 27 -15 59l90 30q42 14 42 54l-3 22q0 9 -7 17l-13 14q-5 6 -16 10l-159 1l-27 53h422v-53h-197l27 -27q15 -15 21 -26l8 -14l6 -12l3 -14l1 -13q-3 -14 -46 -44l-44 -24l-43 -17q0 -29 20 -53
q14 -13 42 -19l18 -1h26q20 3 31 5.5t39 11.5q48 12 88 46v-51q-13 -13 -28 -21z" />
    <glyph glyph-name="ordmasculine" unicode="&#xba;" horiz-adv-x="423" 
d="M391 441v-116h-209q-49 0 -60 -24l-4 -20l2 -11l8 -12l11 -13l14 -12q38 21 96 27l41 2q28 0 36 -2l35 -6q18 -3 30 -10l26 -14v-20l-20 4l-22 4l-25 3l-27 1l-51 -2q-71 -12 -95 -33q-36 -26 -36 -83q0 -37 78 -88q23 -15 40.5 -25t36.5 -17q37 -15 82 -27v-22
q-37 8 -95 33q-112 48 -166 103q-24 26 -30 54q0 74 51 112l-28 19l-19 23l-11 24l-3 24q0 49 90 49l170 1v74h-327l-26 53h473l26 -53h-92z" />
    <glyph glyph-name="guillemotright" unicode="&#xbb;" horiz-adv-x="567" 
d="M270 318l-52 44l54 42l51 -42zM32 210l-25 41h501l28 -41h-504zM272 46l-54 42l47 45l58 -45z" />
    <glyph glyph-name="onequarter" unicode="&#xbc;" horiz-adv-x="278" 
d="M298 -85l-5 -2l-11 3q-151 69 -196 231q-14 53 -14 98q0 157 120 270q33 30 90 62l10 3l2 -2l4 -3q0 -7 -3 -10l-13 -10q-75 -58 -109 -137l-10.5 -31.5t-16 -60t-8.5 -86.5q0 -94 33.5 -172.5t110.5 -131.5l13 -9l5 -9z" />
    <glyph glyph-name="onehalf" unicode="&#xbd;" horiz-adv-x="317" 
d="M257 147q-45 -156 -196 -231l-10 -3l-5 4l4 9l11 10q52 38 89 93q33 54 48 121q9 42 9 90q0 151 -81 253q-19 25 -65 62l-11 9l-4 9l4 3l11 1q71 -35 122.5 -95.5t74.5 -137.5q13 -52 13 -99q0 -26 -3 -48.5t-11 -49.5z" />
    <glyph glyph-name="threequarters" unicode="&#xbe;" horiz-adv-x="377" 
d="M17 226l-14 41h348l15 -41h-349zM27 102l-14 41h348l15 -41h-349z" />
    <glyph glyph-name="questiondown" unicode="&#xbf;" horiz-adv-x="253" 
d="M305 -182q-38 0 -65 7l-6 1q-66 15 -91 59q-13 26 -13 54v209q0 17 -7 34q-12 37 -46 65q-13 11 -36 22l13 8l11 6l22 15l15 15l10 15l9 20l6 20l3 16v210q0 35 23.5 66.5t60.5 46.5q10 4 24.5 7t28.5 3l17 -2l21 -3l102 1v-31h-100q-31 0 -47 -8q-29 -7 -53.5 -31
t-24.5 -52l-2 -223q0 -11 -3.5 -24.5t-11.5 -23.5l-14 -18l-66 -32l13 -8l9 -4q14 -6 23 -14l16 -11l8 -9l8 -13l8 -18l8 -27l4 -21v-204q0 -84 125 -84h100v-39h-102z" />
    <glyph glyph-name="Agrave" unicode="&#xc0;" horiz-adv-x="481" 
d="M364 220q-7 -11 -17 -35q-6 -21 -6 -38v-208q0 -85 -109 -113q-34 -8 -69 -8h-100v39h98q56 0 89 21q33 17 33 63v205l3 20l10 26l12 25q10 13 17 18l14 10l22 13l9 4l13 7l-63 34l-14 13l-10 20l-10 26l-3 22v208q0 36 -37 63q-14 10 -41 18q-14 4 -23.5 6t-20.5 2
l-98 1v31l110 1q7 0 9 2l8 1h11q51 0 95.5 -36.5t44.5 -87.5l1 -227q0 -12 5 -18l7 -18l11 -16l6 -8l9 -7l10 -8l12 -8l10 -6l15 -8q-39 -15 -63 -49z" />
    <glyph glyph-name="Aacute" unicode="&#xc1;" horiz-adv-x="452" 
d="M372 441v-443l-54 33v155l-231 -103l-39 33l223 104q-62 0 -123 33t-61 82v106h-80l-24 53h514l26 -53h-151zM318 441h-165v-105q0 -46 47 -75q23 -15 54 -24q18 -3 34 -5t30 -2v211z" />
    <glyph glyph-name="Atilde" unicode="&#xc3;" horiz-adv-x="406" 
d="M397 494l29 -53h-106v-105h-173q-11 -2 -20 -8l-16 -13l-11 -17l-4 -16q0 -31 38 -41l24 -3l18 3l34 3q57 0 107 -37q38 -29 41 -52q0 -39 -46 -76q-37 -27 -104 -44l125 -110l-26 -9l-135 117l-22 -1l-14 1l-14 2l-14 5l-20 12q-9 6 -16 16l-11 18l-3 19q0 7 2 11l7 10
l12 7l17 2l10 2l12 -3l12 -6l6 -5l6 -6l15 -19l5 -16l10 -4l15 -1q33 0 74 22.5t46 55.5l-3 18l-8 11l-15 6l-19 2l-15 -1l-24 -1l-27 -2h-20q-10 0 -23 5l-28 15q-13 6 -33 24q-23 26 -36 56l-4 27q0 62 85 62l130 1v63h-264l-24 53h296l-15 19l-14 28l-12 30l-6 26l-1 25
q0 43 26 68q30 25 68 25q39 0 62 -23l21 -21l23 -31v-30q-3 4 -7 9.5t-13 11.5l-25 17l-25 9l-22 4q-45 0 -63 -36l-4 -28q0 -20 2 -26l7 -26q3 -15 11 -26l17 -26z" />
    <glyph glyph-name="Adieresis" unicode="&#xc4;" horiz-adv-x="537" 
d="M433 441v-443l-53 33v152q-20 -23 -66 -37q-18 -5 -44.5 -8t-61.5 -3q-16 0 -24 1t-24 7q-50 15 -84 62q-13 20 -13 45l6 20q4 9 14 17l20 14l25 12l-34 22l-23 25q-24 26 -24 59l4 22h-39l-28 53h553l28 -53h-132zM380 441h-224q-13 0 -23 -5q-18 -6 -27 -28l-3 -20
q0 -22 14 -36q14 -12 43 -21l102 -16l25 -53l-16 6l-26 7l-30 5l-20 2q-53 0 -85 -41l-7 -22q0 -42 56 -60l36 -4q29 0 72 17l30 13l47 24q21 10 36 26v206z" />
    <glyph glyph-name="Aring" unicode="&#xc5;" horiz-adv-x="665" 
d="M326 441l25 -18q9 -7 20 -22l12 -25l5 -25q0 -14 -3.5 -25t-14.5 -23l-24 -18l-33 -12q46 -18 74 -40l13 13q27 21 51 30l18 7l18 6l17 3l18 1q44 0 86 -33q38 -33 38 -84q0 -17 -3.5 -27.5t-5 -14.5t-9.5 -19l-38 -74l-68 33l22 25l19 23l25 36q12 18 15 30l4 18
q0 23 -19 39q-10 8 -24 12l-27 4q-39 0 -89 -34q-16 -11 -28 -26q20 -29 25 -55q0 -47 -58 -83q-29 -16 -59 -26q-14 -3 -27 -5t-29 -2q-57 0 -122 42q-74 48 -118 116l-5 15l3 10l11 4q12 0 22 -20q43 -68 135 -115q26 -9 49 -9q50 0 90.5 27.5t40.5 65.5q0 42 -48 71
q-51 27 -113 27q-47 0 -75 -14l-25 55l8 1l8 2h7l8 1l33 -3q17 0 23 -2h17q51 0 86 25q15 12 19 37q0 16 -3.5 29.5t-11.5 22.5l-8 9l-6 7l-8 4l-7 2l-270 1l-28 53h672l26 -53h-356z" />
    <glyph glyph-name="AE" unicode="&#xc6;" horiz-adv-x="218" 
d="M672 659l-3 -2l-13 3l-13 9l-9 4l-9 3l-13 1l-11 1q-44 0 -69 -25q-20 -26 -20 -64v-18l3 -18l4 -20l4 -22l-12 1q-47 50 -125.5 82t-150.5 32q-50 0 -90 -24t-40 -71v-10l1 -10q2 -10 4 -12l2 -6l100 1l28 -53h-119v-443l-54 33v410h-64l-25 53h94l-8 11l-7 16l-4 15
l-1 15q0 45 38.5 75.5t105.5 30.5h19l21 -2l41 -6q8 -1 17.5 -3t22.5 -7q58 -15 116 -49q15 -9 31 -21t34 -27l-7 22l-5 22l-3 22l-1 23q0 24 3 38t14 27q20 24 64 24q18 0 29 -4q15 -2 28 -10l25 -16l23 -21l5 -7z" />
    <glyph glyph-name="Ccedilla" unicode="&#xc7;" horiz-adv-x="215" 
d="M468 552l-80 41q-68 34 -141 34q-62 0 -103.5 -20.5t-41.5 -63.5v-16l1 -13l3 -12l6 -9l100 1l28 -53h-119v-441l-54 33v408h-64l-25 53h89l-7 10l-5 19l-4 21l-1 19q0 48 45.5 77t124.5 29q44 0 101 -18q33 -12 62.5 -25t52.5 -28l41 -26l73 -49v-10zM565 578l-53 42
l53 42l50 -42z" />
    <glyph glyph-name="Egrave" unicode="&#xc8;" horiz-adv-x="237" 
d="M142 441v-443l-62 33v410h-64l-27 53h102q0 32 -8 56q-18 52 -68 76q-27 11 -57 11t-57 -24l-10 -12l-7 -12l-4 -13l-2 -12q0 -24 -17 -27l-7 2l-8 8l-5 9l-2 8q0 46 32.5 81t86.5 35q64 0 116 -58t52 -129l109 1l27 -53h-120zM177 548l-52 42l52 42l50 -42z" />
    <glyph glyph-name="Eacute" unicode="&#xc9;" horiz-adv-x="183" 
d="M627 554l-40 33l40 31l39 -31zM665 660l-4 -1l-4 1l-8 4l-8 7l-11 5l-14 3l-15 1l-4 1q-65 0 -83 -54l-4 -36v-18q0 -14 2 -18l1 -6l2 -7l2 -14l4 -15l-14 1q-18 21 -51 44t-69 37l-20 7l-19 8l-59 14l-38 5h-19q-31 0 -50 -8q-50 -14 -72 -53q-9 -17 -9 -37l3 -20l8 -18
l100 1l28 -53h-119v-443l-54 33v410h-64l-25 53h94q-7 5 -9 11l-8 17l-6 17l-1 14q0 23 8.5 41t29.5 35q39 31 106 31q48 0 80 -7q134 -28 224 -108l-8 19l-5 22l-4 22l-1 25q0 24 3.5 38.5t13.5 27.5q18 23 66 23l29 -3q14 -3 29.5 -11t23.5 -16l23 -21l5 -7z" />
    <glyph glyph-name="Ecircumflex" unicode="&#xca;" horiz-adv-x="237" 
d="M142 441v-443l-62 33v410h-64l-27 53h102q0 32 -8 56q-18 52 -68 76q-27 11 -57 11t-57 -24l-10 -12l-7 -12l-4 -13l-2 -12q0 -24 -17 -27l-7 2l-8 8l-5 9l-2 8q0 46 32.5 81t86.5 35q64 0 116 -58t52 -129l109 1l27 -53h-120zM292 651l-25 17l-25 9l-22 4q-45 0 -63 -36
l-4 -28q0 -51 42 -104l-28 1l-16 15l-16 31l-15 33l-7 24l-1 25q0 43 26 68q30 25 68 25q39 0 62 -23l21 -21l23 -31v-30q-3 4 -7 9.5t-13 11.5z" />
    <glyph glyph-name="Edieresis" unicode="&#xcb;" horiz-adv-x="288" 
d="M281 441l-28 53h134v-53h-106zM353 146l-41 -17l-43 -11l-41 -3q-19 0 -44 8.5t-56 27.5q-54 33 -58 68q0 27 17 47l22 20l28 18l-22 8q-18 7 -27 12q-28 13 -43 30q-33 27 -33 73q0 33 31 48l23 11l25 6h9l8 1q40 0 72 -19q15 -8 25 -22t10 -33t-32 -45l-15 -11l-16 -9
l-31 -11l26 -18h120l40 -63l-38 7l-42 3q-18 0 -41 -3.5t-35 -11.5q-29 -12 -29 -48q0 -27 19 -46q7 -7 24 -13l36 -4q71 0 143 48q20 13 43 36v-63q-17 -14 -34 -21zM145 457l-23 4q-23 0 -40 -18l-11 -20l-3 -24q0 -14 2 -18l7 -14q9 -12 31 -12q29 0 48 19t19 43
q0 29 -30 40z" />
    <glyph glyph-name="Igrave" unicode="&#xcc;" horiz-adv-x="452" 
d="M361 441v-105h-211q-12 0 -22.5 -3.5t-15.5 -10.5l-10 -14l-2 -15q0 -40 31 -58l31 -11l24 9l30 9l22 4l22 3l11 1h11l13 -2l13 -6q6 -3 10 -10l4 -13q0 -5 -9 -13l-27 -6q-26 0 -33 -2l-23 -1q-36 0 -59 -23l-16 -24l-5 -26q0 -14 9 -29q4 -5 9.5 -10.5t14.5 -12.5
l36 -17q21 -6 39 -6q38 0 64 24l-8 7l-5 8l-3 6l-1 8q0 22 31 22q16 0 24 -4l20 -9q13 -11 17 -29q0 -10 -9 -22q-8 -8 -26 -17l79 -127h-28l-70 122l-11 -4l-28 -2h-6q-72 0 -131 30q-67 35 -67 84l1 22l6 17q3 8 12 15l19 15l-29 16l-26 25q-25 25 -25 59q0 38 48 56l32 6
l170 1v63h-302l-26 53h472l28 -53h-119z" />
    <glyph glyph-name="Iacute" unicode="&#xcd;" horiz-adv-x="528" 
d="M387 441v-105h-170l-8 -2h-9l-25 -6q-28 -6 -46 -30q-4 -8 -7 -25q0 -27 53 -48l13 -5l14 -4l27 -6l27 -1h40l17 2q21 0 45 6l20 5l20 8l20 9l20 11l29 -40l-18 -12l-19 -9l-22 -8l-21 -5v-114h-159q-26 0 -40 -5q-38 -4 -59 -31q-4 -8 -7 -25q0 -24 53 -46l41 -12l40 -4
h38l17 2q25 0 47 7l41 13l39 21l29 -43l-34 -19l-41 -14q-21 -6 -46 -9l-46 -3l-45 1q-54 6 -95 30q-63 36 -63 97q0 54 70 76q12 3 23 5t27 2l116 1v64h-30q-88 0 -141 28q-65 33 -65 95q0 53 70 77q12 3 23 5t27 2l116 1v63h-327l-27 53h552l27 -53h-171z" />
    <glyph glyph-name="Icircumflex" unicode="&#xce;" horiz-adv-x="528" 
d="M387 441v-105h-159q-17 0 -35 -6q-42 -6 -62 -32q-6 -9 -9 -25q0 -27 53 -48l13 -5l14 -4l27 -6l27 -1h40l17 2q21 0 45 6l20 5l20 8l20 9l20 11l29 -40l-22 -15l-25 -11l-29 -8l-30 -7v-75l38 -20q39 -21 58 -53q7 -14 10 -32q0 -21 -12 -44q-12 -16 -35 -32
q-22 -11 -50 -17t-62 -6h-9l-7 1h-5l-14 1l-17 2q-35 3 -72 16q-71 23 -99 64q-15 21 -15 45q0 21 12 39q26 30 96 42q23 3 36.5 4t40.5 1h53v62q-46 0 -71 4.5t-39.5 10t-32.5 14.5q-68 36 -68 97q0 38 40 65q7 5 38 14q18 4 27.5 4.5t14.5 0.5l116 1v63h-327l-27 53h552
l27 -53h-171zM363 60q-11 2 -25 3t-26 1l-50 -2q-14 0 -36 -4t-33.5 -6t-22.5 -4t-29 -8q-25 -10 -30 -42q0 -35 56 -56q11 -4 33.5 -9t49.5 -8h20q59 0 108 20q26 9 37 22.5t11 30.5q0 47 -63 62z" />
    <glyph glyph-name="Idieresis" unicode="&#xcf;" horiz-adv-x="548" 
d="M423 441v-105h-171q-40 0 -40 -32q0 -14 15 -26l18 -8l25 -2h9l9 1l8 2q7 0 9 2l27 2q15 0 30 -2t32 -9q46 -18 62 -56q6 -17 6 -31l-3 -19l-8 -16l-13 -14l-15 -13v-117h-171q-40 0 -44 -28q6 -37 49 -37l19 2q13 0 25 4l26 2q20 0 35 -2.5t29 -7.5q38 -12 60 -54
q5 -16 7 -33q0 -31 -35 -57q-31 -23 -80 -23q-18 0 -35.5 3t-40.5 11q-95 31 -176 112q-51 51 -75 99l-2 2l-1 3l-1 6l3 5l5 3l3 -1l4 -1l7 -7l7 -10q72 -128 210 -174q44 -13 75 -13h18q15 3 42 15.5t31 36.5q0 17 -2 23q0 15 -23 22l-29 3l-25 -1h-20l-17 -4
q-49 0 -91.5 27.5t-42.5 65.5q0 19 19 37q9 6 25 9l41 4l130 1v62l-18 -4l-22 -1h-12l-21 2l-32 7l-33 12q-7 2 -14.5 6t-18.5 11q-75 43 -129 125l-3 2l-2 6l2 6l7 2q7 0 12 -4l9 -12q24 -45 88 -84q14 -8 23.5 -12.5t45.5 -19.5q21 -6 37 -8t31 -2l15 1l16 3l15 5l15 7
q26 12 30 37l-3 22q-1 15 -22 22l-30 3l-32 -2l-18 -2l-13 -1q-14 0 -24.5 1.5t-24.5 5.5q-46 12 -73 51q-10 20 -10 36q0 19 20 38q5 5 25 11l34 4l119 1v63h-369l-24 53h577l27 -53h-159z" />
    <glyph glyph-name="Ntilde" unicode="&#xd1;" horiz-adv-x="663" 
d="M372 441v-177l29 24l32 19l33 12l35 5q44 0 81.5 -51.5t37.5 -95.5q0 -14 -12 -42t-29 -48q-10 -13 -26 -26l-38 44l26 30l21 31l14 28l5 25q0 14 -5 22q-3 12 -13 22q-9 17 -43 21q-20 0 -44 -9q-16 -6 -38 -22l-37 -33q-14 -15 -29 -38v-184l-52 33v134l-15 -8l-16 -6
l-16 -5l-15 -4l-35 -6l-43 -1q-57 0 -93 36t-36 86q0 41 30.5 69.5t84.5 28.5q62 0 102 -22q16 -6 27 -19q13 -9 25 -26v153h-313l-24 53h675l28 -53h-314zM432 -166l-21 -4l-44 -2q-29 0 -42 2.5t-36 9.5q-46 15 -66 42q-4 5 -7 13q-6 13 -6 27q0 18 11 35q24 30 83 43
l31 5h22l39 -41h-25q-21 0 -30.5 -1.5t-26.5 -6.5q-19 -4 -31 -9.5t-22 -17t-10 -27.5q0 -6 5 -14l16 -14l11 -6l11 -5l10 -3l12 -1l19 1q13 0 15 2l24 6l47 14l26 -43zM320 266q-37 25 -71 37t-57 12q-45 0 -74 -22q-31 -19 -31 -53q0 -32 23 -55q11 -9 27 -15l36 -4l19 1
l20 2l19 4l19 6l36 15q14 6 34 22v50z" />
    <glyph glyph-name="Ograve" unicode="&#xd2;" horiz-adv-x="587" 
d="M200 420l-3 14q-2 6 -7 9l-17 5l-27 2q-18 0 -31 -13l-6 -17l-2 -23q0 -37 40 -55l19 -8l34 -4v90zM430 441h-77l-26 53h260l28 -53h-132v-443l-53 33v179h-178v-54l-3 -10l-8 -2h-7l-6 2l-8 4l-7 5l-67 55l-15 15l-4 12q0 6 4 9l15 4l54 1v65q-51 0 -101 25
q-58 31 -58 78q0 43 59 68q15 6 33 6q43 0 83 -34q10 -9 15 -14.5t14 -18.5q5 -12 7 -29v-146h178v190z" />
    <glyph glyph-name="Oacute" unicode="&#xd3;" horiz-adv-x="278" 
d="M-12 441l-25 53h419v-53h-394zM345 104l-18 -4l-35 -6l-40 -1q-83 0 -144 70q-6 8 -11.5 18t-14.5 28l73 12q72 12 72 52q0 27 -39 41l-43 8l-54 3h-63l-24 -1h-18l-14 -1h-9l-25 -3l-54 -5l-1 32l31 9q12 4 19 5t16 1l39 3l40 1q42 0 90 -7q94 -15 129 -56
q19 -25 19 -53q0 -19 -26 -44l-30 -18l-37 -11l-6 -10l-2 -10q0 -9 5 -17l16 -13q11 -6 23 -9l28 -3q89 0 145 62v-61z" />
    <glyph glyph-name="Ocircumflex" unicode="&#xd4;" horiz-adv-x="502" 
d="M377 441v-105h-170q-41 0 -41 -32q0 -14 15 -26l18 -8l23 -2l18 1q9 0 17 4l28 2q16 0 31 -2t31 -9q47 -14 63 -56q6 -17 6 -31l-3 -19q-1 -10 -7 -17l-12 -14q-5 -7 -17 -12v-105h-145q-19 0 -40 -6q-30 -5 -46 -32l-5 -25q0 -31 31 -61q26 -23 99 -35l-3 10l-1 15
q0 36 23 63q11 12 28 21q19 7 34 7q29 0 59.5 -20t30.5 -42l1 -19q0 -42 -27 -61.5t-68 -19.5l-26 2l-24 3q-30 3 -74 23q-82 36 -120 87q-17 23 -17 47q0 38 54 65q19 8 42 13t49 5l91 1v51l-26 -2q-35 0 -64.5 7.5t-67.5 28.5q-78 45 -130 125l-4 11l1 3l6 2q13 0 23 -16
q22 -42 89.5 -84t134.5 -42q59 0 84 32q5 6 8 21l-3 22q-1 15 -22 22l-30 3h-20l-26 -4l-19 -1q-22 0 -34.5 2.5t-32.5 11.5q-33 16 -53 44q-10 20 -10 36q0 19 20 38q5 5 25 11l35 4l116 1v63h-316l-24 53h524l28 -53h-158zM424 -93q-4 6 -16 10l-23 6l-23 2
q-13 0 -23.5 -3.5t-23.5 -12.5l-17 -18l-5 -21v-4l2 -6l1 -5l2 -4h5l6 -1h5l6 -1l10 -1l13 -1l35 3l28 9q24 12 24 35q-1 3 -1.5 5.5t-4.5 7.5z" />
    <glyph glyph-name="Odieresis" unicode="&#xd6;" horiz-adv-x="447" 
d="M437 211l-26 -4q-20 0 -26 -2l-19 -1l-24 1q-12 0 -19 4q29 -24 29 -63q0 -37 -43 -67q-24 -17 -66 -31l-36 -8l130 -115l-25 -9l-135 117l-20 -1l-16 1l-14 2q-9 2 -12 5l-21 11l-14 15l-10 18l-3 19q0 32 35 32l9 -1l10 -3l9 -6l10 -8l13 -16l14 -19l11 -4l15 -1
q17 0 35 5t43 19q35 20 41 54l-3 24q0 9 -7 17q-6 12 -25 12l-18 -3l-28 -7l-29 -8l-20 -2q-13 0 -26 5l-30 16q-21 15 -38 33l-11 15l-11 26l-4 26q0 46 52 62q20 6 39 6l119 1v63h-262l-26 53h476l27 -53h-161v-105h-173q-11 0 -18 -3t-18 -13l-11 -17l-4 -21
q0 -22 23 -38l26 -11l31 -3l12 2l17 2h8l6 1h4l29 -1l39 -3l34 -2l21 -1l28 1q11 0 27 5l8 2l24 12l16 12l-3 4l3 -48z" />
    <glyph glyph-name="Oslash" unicode="&#xd8;" horiz-adv-x="615" 
d="M372 441v-177l28 25l26 18l31 12l20 5h14q44 0 81.5 -51.5t37.5 -95.5q0 -14 -12 -42t-29 -48q-10 -13 -26 -26l-38 44l26 30l21 31l14 28l5 25q0 9 -6 23q-9 25 -35 37l-29 6q-47 0 -101 -54q-14 -14 -28 -34v-199l-54 33v133l-30 -18l-47 -31l-139 -96l-54 22l132 93
q-22 0 -31.5 1t-27 8t-35.5 28q-35 38 -35 86q0 41 30.5 69.5t84.5 28.5q58 0 100 -21q9 -5 15 -9t13 -11l24 -25v152h-311l-24 53h629l26 -53h-266zM318 266q-34 23 -67 36q-6 2 -25 7.5t-34 5.5q-45 0 -74 -22q-31 -19 -31 -53q0 -74 86 -74l19 1l20 2l19 4l19 6l36 15
l32 21v51z" />
    <glyph glyph-name="Ugrave" unicode="&#xd9;" horiz-adv-x="316" 
d="M7 441l-27 53h408v-53h-381zM271 294q-47 0 -77 -40q-6 -7 -12 -24l-4 -10l-1 -10q0 -7 -2 -11v-10q0 -15 2 -26.5t8 -28.5q6 -22 23 -50l32 -44q9 -13 42 -42h-25l-45 52l-45 54q-22 25 -39 65q-15 31 -15 59l1 16l5 17l8 16l11 16l-91 1l-26 42h367v-42h-117z" />
    <glyph glyph-name="Uacute" unicode="&#xda;" horiz-adv-x="316" 
d="M7 441l-27 53h408v-53h-381zM361 281l-19 -8l-49 -15l-38 -5q-30 0 -58 4t-76 16l-33 8l-41 12l-26 43l46 -13l36 -8l85 -15l67 -5q17 0 36.5 4t49.5 16l20 8l27 12v-41z" />
    <glyph glyph-name="Ucircumflex" unicode="&#xdb;" horiz-adv-x="358" 
d="M299 181q-16 -15 -42 -24q-13 -4 -24 -6t-28 -2q-61 0 -94 29.5t-33 74.5q0 41 33 74q21 20 65 29l29 2q34 0 53 -8q43 -12 64 -56q9 -20 9 -40q0 -42 -32 -73z" />
    <glyph glyph-name="Udieresis" unicode="&#xdc;" horiz-adv-x="288" 
d="M313 441l-26 53h105v-53h-79zM382 234l-14 -1l-19 1l-23 6l-46 13l-47 16l-16 6l-16 7l-44 -28l-47 -25l-25 -12l-24 -11l-25 -10q-8 0 -24 -8l-40 32l59 24l22 10l52 25l42 25l-52 24l-37 24q-15 10 -28 28q-5 10 -8 29q0 26 30 53q37 31 90 31q56 0 100.5 -32t44.5 -73
q0 -13 -3.5 -22.5t-13.5 -20.5l-21 -24l-27 -24l118 -35q12 -2 18 -5l15 -6l10 -6l4 -5zM167 461h-12q-21 0 -42 -15q-10 -7 -18 -21l-5 -28q0 -9 6 -23l16 -19l26 -20l34 -18l25 22l20 24l12 22l4 24q0 52 -66 52z" />
    <glyph glyph-name="Yacute" unicode="&#xdd;" horiz-adv-x="657" 
d="M372 441v-184l30 28l26 20l19 9l14 5q20 5 36 5q46 0 83 -49.5t37 -97.5q0 -18 -5 -27l-15 -31q-7 -16 -21 -33l-25 -25l-39 44l27 31l21 30l12 28l5 25q0 23 -21 43q-15 17 -48 21q-13 0 -19 -1t-20.5 -7t-21.5 -10q-11 -8 -16 -12q-15 -10 -31 -28.5t-28 -39.5v-187
l-54 33v155l-231 -103l-39 33l223 104q-62 0 -123 33t-61 82v106h-80l-24 53h663l26 -53h-300zM318 441h-165v-105q0 -46 47 -75q23 -15 54 -24q18 -3 34 -5t30 -2v211z" />
    <glyph glyph-name="Thorn" unicode="&#xde;" horiz-adv-x="432" 
d="M390 532q0 -17 -15 -43l-17 -33l-19 -27l-27 -37l-25 -32l-11 -13l-35 18l15 15l11 12l24 29l16 26l10 23l8 29l-62 50l64 51l65 -51zM232 540q0 -9 -5 -19l-12 -26l-18 -35l-18 -27l-29 -39l-35 -43l-35 18l15 15l11 12l25 30q9 10 16 26l10 22l5 22l1 7l-61 50l64 51
l66 -51v-13z" />
    <glyph glyph-name="germandbls" unicode="&#xdf;" horiz-adv-x="388" 
d="M336 592l-25 -29l-15 -24l-9 -19l-5 -14l-3 -11l-1 -8l63 -48l-65 -50l-66 50l-1 11l6 19q5 16 11 26l20 35l19 30l50 65l12 13l36 -17zM175 596l-25 -29l-15 -24l-9 -19l-5 -14l-3 -11l-1 -8l64 -48l-66 -50l-67 50v11l4 20l12 25l37 61l54 70l11 12l36 -17z" />
    <glyph glyph-name="agrave" unicode="&#xe0;" horiz-adv-x="502" 
d="M430 441v-116h-250q-33 0 -53 -13l-11 -15l-4 -20l3 -10l8 -12l6 -6l7 -6l6 -7l8 -6l27 8l34 7l36 3l38 2q35 0 67.5 -5.5t68.5 -18.5q61 -24 61 -60v-219l-52 20v74q-30 -21 -77 -29l-31 -2q-42 0 -73 17t-31 55q0 43 26 58.5t55 20.5l22 1q12 0 26.5 -0.5t36 -7
t46.5 -25.5v49q0 10 -7 18q-6 12 -20 15l-30 8l-37 3l-51 -2q-61 -7 -117 -40t-56 -76q0 -50 66 -110q40 -37 70 -54q12 -7 31.5 -16t43.5 -19v-22q-96 36 -175 100q-87 69 -87 132q0 42 18 66t53 43l-27 19q-10 11 -18 23l-11 23l-3 26q0 17 24 37l29 10l40 4l211 1v74
h-370l-24 53h524l28 -53h-105zM430 105l-26 12l-23 10l-23 6l-21 2q-28 0 -54 -18t-26 -44l3 -20l10 -13l15 -8l21 -2l31 3q42 9 67 25l26 15v32z" />
    <glyph glyph-name="aacute" unicode="&#xe1;" horiz-adv-x="632" 
d="M570 441v-443l-53 33v49l-31 -19l-34 -12l-37 -7l-38 -2h-15l-54 15q-51 18 -51 49q0 17 30 41l75 43l4 7l2 8l-4 9l-11 7l-16 3l-20 2q-16 0 -26 -2l-20 -3q-8 0 -34 -9q-19 -5 -27 -11q-28 -11 -40.5 -22.5t-20.5 -32.5t-8 -40q0 -37 74.5 -83t161.5 -65q6 0 9 -4
l4 -11l-7 -3l-6 -2q-22 5 -48.5 13.5t-50.5 18.5q-13 5 -23.5 9t-63.5 31l-43 27q-33 21 -52 53l-9 27q0 72 50 112l-28 19q-10 11 -18 23l-11 23l-3 25q0 24 21 36l25 9l30 4l184 1v74h-330l-24 53h679l26 -53h-118zM517 441h-126v-116h-211q-21 0 -32 -4q-21 -3 -27 -20
l-4 -20l2 -11l8 -13l11 -13l15 -11l29 11l36 9l41 6l39 2q13 0 26 -4l26 -9l13 -8l13 -9q35 -24 40 -54l-3 -4q-3 -6 -13 -12l-47 -34q-30 -17 -30 -45q0 -9 7 -15l23 -4q36 0 77 19l45 21q11 5 20.5 11t21.5 18v309z" />
    <glyph glyph-name="acircumflex" unicode="&#xe2;" horiz-adv-x="423" 
d="M391 441v-116h-211q-21 0 -32 -4q-21 -3 -27 -20l-4 -20l2 -11l8 -13l11 -13l15 -11l29 11l36 9l41 6l39 2q13 0 26 -4l26 -9l13 -8l13 -9q35 -24 40 -54l-12 -12l-34 -18q-41 -22 -47 -54q0 -12 10 -21q11 -7 27 -7h11l10 1l9 2l15 6l14 5l12 2l10 -3q5 -2 9 -7l5 -10
l2 -11l-5 -2l-4 -1l-14 -4q-9 0 -12 -2l-19 -1h-41l-54 15q-51 18 -51 49q0 17 30 41l75 43l4 8l2 8l-4 8l-9 6l-15 3l-19 2h-12l-5 -1h-4l-11 -1l-18 -2q-51 -6 -90 -33q-16 -11 -28 -34.5t-12 -47.5q0 -39 76 -90q17 -11 45 -25q15 -8 33 -16q30 -13 82 -26v-22
q-94 24 -185.5 78t-104.5 112q0 72 50 112l-28 19q-10 11 -18 23l-11 23l-3 25q0 23 29 35l29 10l31 4l171 1v74h-330l-24 53h538v-53h-130z" />
    <glyph glyph-name="atilde" unicode="&#xe3;" horiz-adv-x="622" 
d="M552 441v-443l-52 33v85h-115v-33q0 -13 -3.5 -19.5t-13.5 -6.5l-6 2l-4 2l-95 77l-1 6q3 10 16 11l68 1v11q0 32 -23 42t-83 10l-15 -2q-10 -3 -14 -5l-15 -8l-15 -12q-26 -21 -34 -57l-2 -27q0 -42 45 -76l19 -10l26 -12l66 -19l27 -6l30 -7v-22q-101 9 -177 53
q-47 26 -73 57.5t-26 68.5l3 23q2 10 10 24l12 22q8 11 18 18l-15 5l-7 4l-6 3l-6 4l-12 10l-12 13l-15 26l-5 23q0 29 27 47q15 8 42 16l16 4h15l170 1v63h-314l-25 53h667l27 -53h-120zM500 441h-129v-105h-224q-13 0 -23 -5q-29 -9 -29 -46q0 -21 10 -34l12 -13l18 -8
l15 8l23 6l30 4l37 2l32 -1q14 -2 26 -7q50 -13 77 -49q7 -10 10 -27v-10h115v285z" />
    <glyph glyph-name="adieresis" unicode="&#xe4;" horiz-adv-x="708" 
d="M438 441v-179l28 24l30 21l30 12l32 5q24 0 44.5 -13.5t40.5 -39.5q6 -9 13.5 -23.5t11.5 -24.5q9 -23 9 -46q0 -17 -3.5 -29t-15.5 -30l-21 -32q-6 -10 -25 -25l-40 44l26 29l22 32q9 14 13 29l5 24q0 14 -5 22q-5 23 -35 36q-9 3 -26 5q-14 0 -19 -2q-10 0 -18 -5
l-19 -8l-18 -11l-31 -27l-29 -34v-192l-52 28v263h-115q-47 0 -77 -40q-6 -7 -12 -24l-4 -10l-1 -10q0 -7 -2 -11v-10q0 -15 2 -26.5t8 -28.5q6 -22 23 -50l32 -44q9 -13 42 -42h-25l-45 52l-45 54q-22 25 -39 65q-15 31 -15 59l1 16l5 17l8 16l11 16l-91 1l-26 42h365v105
h-379l-27 53h733l28 -53h-303z" />
    <glyph glyph-name="aring" unicode="&#xe5;" horiz-adv-x="367" 
d="M6 441l-26 53h487v-53h-461zM381 210q-12 -39 -45 -60q-41 -26 -106 -26q-11 0 -24 0.5t-32 7.5q-50 17 -97 55q-11 9 -21 18.5t-24 24.5l2 7l3 8l2 3l2 2l4 2q55 -52 94 -75q41 -22 78 -22q50 0 84.5 27.5t34.5 67.5q0 30 -13 52q-6 6 -17 9l-24 4l-9 -1q-7 0 -9 -2
l-10 -3l-9 -5l-21 -14q-16 -9 -22 -17l-52 32q23 41 106 41q28 0 45 -8q44 -12 69 -50q11 -17 15 -38l82 1v-41h-86z" />
    <glyph glyph-name="ae" unicode="&#xe6;" horiz-adv-x="472" 
d="M371 441v-85l-1 -4l-1 -3l-3 -4l-3 -3l-8 -6l-9 -1l-106 1q-48 0 -80 -22q-39 -15 -39 -53q0 -51 51 -80q13 -7 53 -20q30 -6 67 -6l-4 7l-2 7l-2 3l-1 3q0 7 -2 9v10l1 11l6 11l11 8l18 6q13 0 22 -4q16 -3 28 -30l4 -20q0 -25 -25 -41l116 -168l-25 -11l-120 169
l-250 -115l-25 31l198 95q-29 0 -52 10.5t-57.5 37t-49 47t-14.5 42.5q0 44 42 74t92 30l116 1v63h-314l-25 53h499l26 -53h-132z" />
    <glyph glyph-name="ccedilla" unicode="&#xe7;" horiz-adv-x="452" 
d="M372 441v-443l-54 33v155l-231 -103l-39 33l223 104q-62 0 -123 33t-61 82v106h-80l-24 53h514l26 -53h-151zM318 441h-165v-105q0 -46 47 -75q23 -15 54 -24q18 -3 34 -5t30 -2v211z" />
    <glyph glyph-name="egrave" unicode="&#xe8;" horiz-adv-x="288" 
d="M281 441l-28 53h134v-53h-106zM353 146l-41 -17l-43 -11l-41 -3q-19 0 -44 8.5t-56 27.5q-54 33 -58 68q0 27 17 47l22 20l28 18l-22 8q-18 7 -27 12q-28 13 -43 30q-33 27 -33 73q0 33 31 48l23 11l25 6h9l8 1q40 0 72 -19q15 -8 25 -22t10 -33t-32 -45l-15 -11l-16 -9
l-31 -11l26 -18h120l40 -63l-38 7l-42 3q-18 0 -41 -3.5t-35 -11.5q-29 -12 -29 -48q0 -27 19 -46q7 -7 24 -13l36 -4q71 0 143 48q20 13 43 36v-63q-17 -14 -34 -21zM145 457l-23 4q-23 0 -40 -18l-11 -20l-3 -24q0 -14 2 -18l7 -14q9 -12 31 -12q29 0 48 19t19 43
q0 29 -30 40z" />
    <glyph glyph-name="eacute" unicode="&#xe9;" horiz-adv-x="522" 
d="M440 441v-443l-55 33v177l-180 -61l2 -17l3 -17l1 -14l1 -5q0 -20 -15 -23l-15 2l-16 9l-62 39l-6 6l-4 5l-1 6q0 7 9 16l25 12l231 76q-5 6 -14 13.5t-20 13.5q-81 46 -172 46l-1 -27l-1 -17q-4 -28 -23 -31q-14 0 -33 13q-26 22 -40 45l-7 26q0 31 91 31q33 0 76 -8.5
t89 -31.5q35 -19 82 -62v188h-378l-27 53h551l25 -53h-116z" />
    <glyph glyph-name="ecircumflex" unicode="&#xea;" horiz-adv-x="528" 
d="M387 441v-105h-170l-8 -2h-9l-25 -6q-28 -6 -46 -30q-4 -8 -7 -25q0 -27 53 -48l13 -5l14 -4l27 -6l27 -1h40l17 2q21 0 45 6l20 5l20 8l20 9l20 11l29 -40l-18 -12l-19 -9l-22 -8l-21 -5v-114h-159q-26 0 -40 -5q-38 -4 -59 -31q-4 -8 -7 -25q0 -24 53 -46l41 -12l40 -4
h38l17 2q25 0 47 7l41 13l39 21l29 -43l-34 -19l-41 -14q-21 -6 -46 -9l-46 -3l-45 1q-54 6 -95 30q-63 36 -63 97q0 54 70 76q12 3 23 5t27 2l116 1v64h-30q-88 0 -141 28q-65 33 -65 95q0 53 70 77q12 3 23 5t27 2l116 1v63h-327l-27 53h552l27 -53h-171z" />
    <glyph glyph-name="edieresis" unicode="&#xeb;" horiz-adv-x="528" 
d="M387 441v-105h-159q-17 0 -35 -6q-42 -6 -62 -32q-6 -9 -9 -25q0 -27 53 -48l13 -5l14 -4l27 -6l27 -1h40l17 2q21 0 45 6l20 5l20 8l20 9l20 11l29 -40l-22 -15l-25 -11l-29 -8l-30 -7v-75l38 -20q39 -21 58 -53q7 -14 10 -32q0 -21 -12 -44q-12 -16 -35 -32
q-22 -11 -50 -17t-62 -6h-9l-7 1h-5l-14 1l-17 2q-35 3 -72 16q-71 23 -99 64q-15 21 -15 45q0 21 12 39q26 30 96 42q23 3 36.5 4t40.5 1h53v62q-46 0 -71 4.5t-39.5 10t-32.5 14.5q-68 36 -68 97q0 38 40 65q7 5 38 14q18 4 27.5 4.5t14.5 0.5l116 1v63h-327l-27 53h552
l27 -53h-171zM363 60q-11 2 -25 3t-26 1l-50 -2q-14 0 -36 -4t-33.5 -6t-22.5 -4t-29 -8q-25 -10 -30 -42q0 -35 56 -56q11 -4 33.5 -9t49.5 -8h20q59 0 108 20q26 9 37 22.5t11 30.5q0 47 -63 62z" />
    <glyph glyph-name="igrave" unicode="&#xec;" horiz-adv-x="548" 
d="M423 441v-105h-171q-40 0 -40 -32q0 -14 15 -26l18 -8l25 -2h9l9 1l8 2q7 0 9 2l27 2q15 0 30 -2t32 -9q46 -18 62 -56q6 -17 6 -31l-3 -19l-8 -16l-13 -14l-15 -13v-117h-171q-40 0 -44 -28q6 -37 49 -37l19 2q13 0 25 4l26 2q20 0 35 -2.5t29 -7.5q38 -12 60 -54
q5 -16 7 -33q0 -31 -35 -57q-31 -23 -80 -23q-18 0 -35.5 3t-40.5 11q-95 31 -176 112q-51 51 -75 99l-2 2l-1 3l-1 6l3 5l5 3l3 -1l4 -1l7 -7l7 -10q72 -128 210 -174q44 -13 75 -13h18q15 3 42 15.5t31 36.5q0 17 -2 23q0 15 -23 22l-29 3l-25 -1h-20l-17 -4
q-49 0 -91.5 27.5t-42.5 65.5q0 19 19 37q9 6 25 9l41 4l130 1v62l-18 -4l-22 -1h-12l-21 2l-32 7l-33 12q-7 2 -14.5 6t-18.5 11q-75 43 -129 125l-3 2l-2 6l2 6l7 2q7 0 12 -4l9 -12q24 -45 88 -84q14 -8 23.5 -12.5t45.5 -19.5q21 -6 37 -8t31 -2l15 1l16 3l15 5l15 7
q26 12 30 37l-3 22q-1 15 -22 22l-30 3l-32 -2l-18 -2l-13 -1q-14 0 -24.5 1.5t-24.5 5.5q-46 12 -73 51q-10 20 -10 36q0 19 20 38q5 5 25 11l34 4l119 1v63h-369l-24 53h577l27 -53h-159z" />
    <glyph glyph-name="iacute" unicode="&#xed;" horiz-adv-x="452" 
d="M361 441v-105h-211q-12 0 -22.5 -3.5t-15.5 -10.5l-10 -14l-2 -15q0 -40 31 -58l31 -11l24 9l30 9l22 4l22 3l11 1h11l13 -2l13 -6q6 -3 10 -10l4 -13q0 -5 -9 -13l-27 -6q-26 0 -33 -2l-23 -1q-36 0 -59 -23l-16 -24l-5 -26q0 -14 9 -29q4 -5 9.5 -10.5t14.5 -12.5
l36 -17q21 -6 39 -6q38 0 64 24l-8 7l-5 8l-3 6l-1 8q0 22 31 22q16 0 24 -4l20 -9q13 -11 17 -29q0 -10 -9 -22q-8 -8 -26 -17l79 -127h-28l-70 122l-11 -4l-28 -2h-6q-72 0 -131 30q-67 35 -67 84l1 22l6 17q3 8 12 15l19 15l-29 16l-26 25q-25 25 -25 59q0 38 48 56l32 6
l170 1v63h-302l-26 53h472l28 -53h-119z" />
    <glyph glyph-name="icircumflex" unicode="&#xee;" horiz-adv-x="278" 
d="M-12 441l-25 53h419v-53h-394zM345 104l-18 -4l-35 -6l-40 -1q-83 0 -144 70q-6 8 -11.5 18t-14.5 28l73 12q72 12 72 52q0 27 -39 41l-43 8l-54 3h-63l-24 -1h-18l-14 -1h-9l-25 -3l-54 -5l-1 32l31 9q12 4 19 5t16 1l39 3l40 1q42 0 90 -7q94 -15 129 -56
q19 -25 19 -53q0 -19 -26 -44l-30 -18l-37 -11l-6 -10l-2 -10q0 -9 5 -17l16 -13q11 -6 23 -9l28 -3q89 0 145 62v-61z" />
    <glyph glyph-name="idieresis" unicode="&#xef;" horiz-adv-x="502" 
d="M377 441v-105h-170q-41 0 -41 -32q0 -14 15 -26l18 -8l23 -2l18 1q9 0 17 4l28 2q16 0 31 -2t31 -9q47 -14 63 -56q6 -17 6 -31l-3 -19q-1 -10 -7 -17l-12 -14q-5 -7 -17 -12v-105h-145q-19 0 -40 -6q-30 -5 -46 -32l-5 -25q0 -31 31 -61q26 -23 99 -35l-3 10l-1 15
q0 36 23 63q11 12 28 21q19 7 34 7q29 0 59.5 -20t30.5 -42l1 -19q0 -42 -27 -61.5t-68 -19.5l-26 2l-24 3q-30 3 -74 23q-82 36 -120 87q-17 23 -17 47q0 38 54 65q19 8 42 13t49 5l91 1v51l-26 -2q-35 0 -64.5 7.5t-67.5 28.5q-78 45 -130 125l-4 11l1 3l6 2q13 0 23 -16
q22 -42 89.5 -84t134.5 -42q59 0 84 32q5 6 8 21l-3 22q-1 15 -22 22l-30 3h-20l-26 -4l-19 -1q-22 0 -34.5 2.5t-32.5 11.5q-33 16 -53 44q-10 20 -10 36q0 19 20 38q5 5 25 11l35 4l116 1v63h-316l-24 53h524l28 -53h-158zM424 -93q-4 6 -16 10l-23 6l-23 2
q-13 0 -23.5 -3.5t-23.5 -12.5l-17 -18l-5 -21v-4l2 -6l1 -5l2 -4h5l6 -1h5l6 -1l10 -1l13 -1l35 3l28 9q24 12 24 35q-1 3 -1.5 5.5t-4.5 7.5z" />
    <glyph glyph-name="eth" unicode="&#xf0;" horiz-adv-x="512" 
d="M361 441v-74l38 -20q38 -20 59 -55q9 -15 9 -31q0 -56 -67 -86l-47 -10v-71l40 -21q39 -21 57 -54q5 -8 8 -30q0 -47 -44 -73.5t-109 -26.5q-88 0 -155 34q-73 38 -73 96q0 42 44 64q33 15 87 21l39 1h54v61q-31 0 -44 1t-35 7q-83 19 -122 70q-17 22 -17 49q0 64 99 81
q17 3 43 4t31 1l52 -1v63h-302l-27 53h541l25 -53h-184zM394 322q-21 6 -49 9l-75 4l-62 -3q-18 0 -52 -10t-34 -49q0 -34 50 -55q21 -8 47 -13l52 -4h39q17 0 66.5 16.5t49.5 55.5q0 36 -32 49zM312 64l-50 -2l-71 -11q-30 -5 -36 -8q-21 -6 -31 -20q-4 -8 -7 -25
q0 -36 49 -55q26 -11 70 -17l26 -1q65 0 111.5 20t46.5 53q0 36 -38 54q-25 12 -70 12z" />
    <glyph glyph-name="ntilde" unicode="&#xf1;" horiz-adv-x="288" 
d="M251 54q-41 -45 -110 -45q-36 0 -60 12q-46 21 -46 61q0 32 34.5 63.5t83.5 31.5q45 0 79.5 -20t38.5 -53q0 -27 -20 -50zM213 111q-6 26 -32 38l-28 6q-65 0 -76 -33l-4 -29q0 -42 55 -58l32 -4l22 3l19 9q11 8 17 39q0 19 -5 29z" />
    <glyph glyph-name="oacute" unicode="&#xf3;" horiz-adv-x="713" 
d="M237 305l41 12l37 10l37 6l44 2q37 0 89 -25t78 -56v187h-326v-136zM436 74l-40 31l167 103v22l-231 -63l-41 31l225 53q0 14 -39 31l-36 8l-31 3h-23l-25 -2l-42 -6l-44 -10l-49 -14l-16 -31q-2 -6 -21 -23l-30 -19l222 -168l-25 -22l-287 227l-10 17l-3 15q0 24 36 24
h14l5 -1h5l11 -3q10 0 18 -4q12 0 20 7q4 5 7 24v137h-173l-26 53h747l27 -53h-131v-443l-54 33v123z" />
    <glyph glyph-name="ocircumflex" unicode="&#xf4;" horiz-adv-x="632" 
d="M362 441v-125l30 22l31 17q7 5 32 11l36 4q44 0 81.5 -46t37.5 -86q0 -12 -6 -24l-14 -29q-7 -14 -22 -29l-25 -23l-38 40l26 27l21 28l14 25l5 22q0 16 -18 40q-16 19 -43 19l-21 -1l-20 -6l-20 -8l-21 -12q-34 -19 -66 -65l1 -172l25 15l20 11l29 9l30 4q44 0 75 -30.5
t31 -73.5l-1 -29l-1 -20q-4 -28 -25 -46l-39 33q25 39 25 73l-3 24q0 10 -7 20q-5 14 -29 18q-24 0 -39 -8q-24 -8 -43 -22l-17 -12l-32 -22v-124l-52 32v60q-53 -25 -104 -25q-62 0 -103 27q-46 31 -46 81q0 38 35 64q18 12 38 17.5t48 5.5l17 -1l17 -3l16 -6l18 -7
q13 -5 30 -19l34 -27v138l-30 -12l-32 -8l-36 -6l-42 -1q-34 0 -54 8q-75 30 -75 102q0 57 65 81q14 3 26.5 5t23.5 2q62 0 102 -20q15 -8 26 -17l26 -24v104h-312l-31 53h658l27 -53h-290zM310 318l-36 19l-32 14l-30 8l-30 3q-47 0 -74 -20q-13 -8 -23 -21q-4 -9 -8 -27
q0 -34 23 -48q9 -6 27 -13l36 -4l26 1l26 4l13 3l13 4q13 4 18 6t18 8l33 19v44zM310 65l-25 18l-29 14l-33 9l-32 3q-22 0 -33 -5q-33 -4 -53 -32q-4 -8 -7 -25q0 -13 6 -28q6 -9 19 -19l29 -10l39 -4h18q15 3 47 15l25 15l32 23z" />
    <glyph glyph-name="otilde" unicode="&#xf5;" 
d="M12 556l-39 33l39 31l39 -31zM48 662l-11 2l-12 9l-8 4l-10 3l-10 1l-13 1q-46 0 -66 -28t-20 -69l1 -22l2 -23l2 -12l1 -12l2 -12l2 -11l-13 1q-30 50 -105 114l-52 42q-36 24 -60 27l-60 6l-40 53l6 1l3 2l17 5l15 2q25 0 51 -16l29 -17q13 -6 25 -20l158 -157l-5 23
l-4 24l-3 25l-1 27l-1 16q0 15 4 26t16 24q21 23 58 23q17 0 30 -3t25 -11l25 -16l25 -21l4 -7zM-132 494l-43 30q-13 9 -47 23q-52 19 -93 19l-28 -10l-53 33l-1 6l2 3l3 5l4 4l6 4l16 6l24 2l27 -6l26 -7l27 -11l26 -14q32 -16 87 -61l32 -27z" />
    <glyph glyph-name="odieresis" unicode="&#xf6;" horiz-adv-x="676" 
d="M596 441v-105h-158q-37 0 -66 -21q-7 -5 -20 -24q-6 -12 -6 -30q0 -51 51 -80q13 -7 53 -20q30 -6 67 -6l-2 4l-1 5l-2 6l-6 21l-1 11v4l1 6v4l2 5q4 5 7 7l16 2q16 0 25.5 -3.5t23.5 -13.5l14 -18q6 -8 6 -20q0 -23 -30 -40l106 -168l-29 -11l-105 169l-235 -74l13 -31
q0 -8 -6 -16l-14 -4q-14 0 -18 2l-15 7l-39 22l-12 6l-14 14l-1 8l3 7l11 7l27 10l-27 73l-30 -7l-30 -2q-40 0 -65 10.5t-40 35.5q-8 14 -8 37q0 26 24 46q19 12 56 17q35 0 60 -14q52 -27 85 -103q11 -30 25 -83l159 43q-59 10 -109 54t-50 83q0 44 42 74t92 30l116 1v63
h-539l-24 53h697l25 -53h-105zM201 231q-21 42 -64 42q-20 0 -31 -15q-3 -3 -8 -17l-2 -22q0 -42 67 -51l52 -2q0 19 -3 34t-11 31z" />
    <glyph glyph-name="divide" unicode="&#xf7;" horiz-adv-x="447" 
d="M437 211l-26 -4q-20 0 -26 -2l-19 -1l-24 1q-12 0 -19 4q29 -24 29 -63q0 -37 -43 -67q-24 -17 -66 -31l-36 -8l130 -115l-25 -9l-135 117l-20 -1l-16 1l-14 2q-9 2 -12 5l-21 11l-14 15l-10 18l-3 19q0 32 35 32l9 -1l10 -3l9 -6l10 -8l13 -16l14 -19l11 -4l15 -1
q17 0 35 5t43 19q35 20 41 54l-3 24q0 9 -7 17q-6 12 -25 12l-18 -3l-28 -7l-29 -8l-20 -2q-13 0 -26 5l-30 16q-21 15 -38 33l-11 15l-11 26l-4 26q0 46 52 62q20 6 39 6l119 1v63h-262l-26 53h476l27 -53h-161v-105h-173q-11 0 -18 -3t-18 -13l-11 -17l-4 -21
q0 -22 23 -38l26 -11l31 -3l12 2l17 2h8l6 1h4l29 -1l39 -3l34 -2l21 -1l28 1q11 0 27 5l8 2l24 12l16 12l-3 4l3 -48z" />
    <glyph glyph-name="oslash" unicode="&#xf8;" horiz-adv-x="253" 
d="M305 -182q-38 0 -65 7l-6 1q-66 15 -91 59q-13 26 -13 54v209q0 17 -7 34q-12 37 -46 65q-13 11 -36 22l13 8l11 6l22 15l15 15l10 15l9 20l6 20l3 16v210q0 35 23.5 66.5t60.5 46.5q10 4 24.5 7t28.5 3l17 -2l21 -3l102 1v-31h-100q-31 0 -47 -8q-29 -7 -53.5 -31
t-24.5 -52l-2 -223q0 -11 -3.5 -24.5t-11.5 -23.5l-14 -18l-66 -32l13 -8l9 -4q14 -6 23 -14l16 -11l8 -9l8 -13l8 -18l8 -27l4 -21v-204q0 -84 125 -84h100v-39h-102z" />
    <glyph glyph-name="ugrave" unicode="&#xf9;" horiz-adv-x="622" 
d="M500 441h-129v-105h-224q-13 0 -23 -5q-29 -9 -29 -46q0 -36 43 -48q8 5 15 7t20 2l67 4l32 -1q14 -2 26 -7q50 -13 77 -49q7 -10 10 -27v-10h115v285zM103 225l-15 12l-6 7l-15 17l-15 26l-5 23q0 29 27 47q15 8 42 16l16 4h15l170 1v63h-314l-25 53h667l27 -53h-120
v-443l-52 33v85h-115v-33q0 -13 -3.5 -19.5t-13.5 -6.5l-6 2l-4 2l-95 77l-1 6q3 10 16 11l68 1v11q0 32 -23 42t-83 10l-20 -2l-37 -3l-17 -2h-16l-16 1l-11 3z" />
    <glyph glyph-name="OE" unicode="&#x152;" horiz-adv-x="367" 
d="M6 441l-26 53h487v-53h-461zM381 210q-12 -39 -45 -60q-41 -26 -106 -26q-11 0 -24 0.5t-32 7.5q-50 17 -97 55q-11 9 -21 18.5t-24 24.5l2 7l3 8l2 3l2 2l4 2q55 -52 94 -75q41 -22 78 -22q50 0 84.5 27.5t34.5 67.5q0 30 -13 52q-6 6 -17 9l-24 4l-9 -1q-7 0 -9 -2
l-10 -3l-9 -5l-21 -14q-16 -9 -22 -17l-52 32q23 41 106 41q28 0 45 -8q44 -12 69 -50q11 -17 15 -38l82 1v-41h-86z" />
    <glyph glyph-name="Scaron" unicode="&#x160;" horiz-adv-x="488" 
d="M227 494l54 135l5 5l11 2l15 -3l15 -9l10 -11q0 -7 -2 -9zM227 494l168 27l5 -1l8 -2l7 -3l6 -7l2 -9q0 -21 -26 -21zM110 598l-4 8l9 11l13 8l17 3q7 0 9 -2l7 -6l66 -126zM343 393l2 -4l1 -4l-4 -8l-10 -8l-8 -5l-12 -3h-4l-8 1l-3 4l-70 128zM63 463h-14l-8 6l-4 9
l-1 9l1 9l5 8l9 4l12 1l164 -15zM176 365q-4 -5 -7 -7l-9 -1l-13 1l-11 5l-9 6l-2 8l1 4l4 5l97 108z" />
    <glyph glyph-name="Ydieresis" unicode="&#x178;" horiz-adv-x="316" 
d="M7 441l-27 53h408v-53h-381zM271 294q-47 0 -77 -40q-6 -7 -12 -24l-4 -10l-1 -10q0 -7 -2 -11v-10q0 -15 2 -26.5t8 -28.5q6 -22 23 -50l32 -44q9 -13 42 -42h-25l-45 52l-45 54q-22 25 -39 65q-15 31 -15 59l1 16l5 17l8 16l11 16l-91 1l-26 42h367v-42h-117z" />
    <glyph glyph-name="florin" unicode="&#x192;" horiz-adv-x="537" 
d="M433 441v-443l-53 33v152q-20 -23 -66 -37q-18 -5 -44.5 -8t-61.5 -3q-16 0 -24 1t-24 7q-50 15 -84 62q-13 20 -13 45l6 20q4 9 14 17l20 14l25 12l-34 22l-23 25q-24 26 -24 59l4 22h-39l-28 53h553l28 -53h-132zM380 441h-224q-13 0 -23 -5q-18 -6 -27 -28l-3 -20
q0 -22 14 -36q14 -12 43 -21l102 -16l25 -53l-16 6l-26 7l-30 5l-20 2q-53 0 -85 -41l-7 -22q0 -42 56 -60l36 -4q29 0 72 17l30 13l47 24q21 10 36 26v206z" />
    <glyph glyph-name="tilde" unicode="&#x2dc;" horiz-adv-x="676" 
d="M596 441v-105h-158q-37 0 -66 -21q-7 -5 -20 -24q-6 -12 -6 -30q0 -51 51 -80q13 -7 53 -20q30 -6 67 -6l-2 4l-1 5l-2 6l-6 21l-1 11v4l1 6v4l2 5q4 5 7 7l16 2q16 0 25.5 -3.5t23.5 -13.5l14 -18q6 -8 6 -20q0 -23 -30 -40l106 -168l-29 -11l-105 169l-235 -74l13 -31
q0 -8 -6 -16l-14 -4q-14 0 -18 2l-15 7l-39 22l-12 6l-14 14l-1 8l3 7l11 7l27 10l-27 73l-30 -7l-30 -2q-40 0 -65 10.5t-40 35.5q-8 14 -8 37q0 26 24 46q19 12 56 17q35 0 60 -14q52 -27 85 -103q11 -30 25 -83l159 43q-59 10 -109 54t-50 83q0 44 42 74t92 30l116 1v63
h-539l-24 53h697l25 -53h-105zM201 231q-21 42 -64 42q-20 0 -31 -15q-3 -3 -8 -17l-2 -22q0 -42 67 -51l52 -2q0 19 -3 34t-11 31z" />
    <glyph glyph-name="c284" unicode="&#x2010;" horiz-adv-x="260" 
d="M201 10l-54 41l54 43l52 -43z" />
    <glyph glyph-name="endash" unicode="&#x2013;" horiz-adv-x="452" 
d="M361 441v-125h-131q-53 0 -91.5 -22t-38.5 -75q0 -47 51.5 -82.5t115.5 -35.5l30 4l-3 3l-2 7l-1 8v8l3 18l8 15q8 8 14 9l20 4l22 -3l20 -7q9 -4 15.5 -11.5t6.5 -20.5l-3 -19q-1 -9 -7 -17l-12 -13l-16 -7l51 -81h-25q-41 0 -85 -15q-22 -8 -34.5 -20t-12.5 -27
q0 -6 5 -14l19 -14l22 -10l20 -4q30 0 59 9q18 4 27 8l19 5l25 -42l-15 -5l-20 -4l-22 -2l-20 -1q-30 0 -53 4.5t-51 18.5q-54 26 -54 71q0 37 45 61q16 8 53 18q11 3 19.5 4t26.5 1l-24 29l-27 -2q-45 0 -87.5 11.5t-86.5 40.5q-89 59 -89 142q0 35 35 63q25 20 81 29l39 2
l106 1v85h-302l-26 53h472l28 -53h-119z" />
    <glyph glyph-name="emdash" unicode="&#x2014;" horiz-adv-x="663" 
d="M372 441v-177l29 24l32 19l33 12l35 5q44 0 81.5 -51.5t37.5 -95.5q0 -14 -12 -42t-29 -48q-10 -13 -26 -26l-38 44l26 30l21 31l14 28l5 25q0 14 -5 22q-3 12 -13 22q-9 17 -43 21q-20 0 -44 -9q-16 -6 -38 -22l-37 -33q-14 -15 -29 -38v-184l-52 33v134l-15 -8l-16 -6
l-16 -5l-15 -4l-35 -6l-43 -1q-57 0 -93 36t-36 86q0 41 30.5 69.5t84.5 28.5q62 0 102 -22q16 -6 27 -19q13 -9 25 -26v153h-313l-24 53h675l28 -53h-314zM432 -166l-21 -4l-44 -2q-29 0 -42 2.5t-36 9.5q-46 15 -66 42q-4 5 -7 13q-6 13 -6 27q0 18 11 35q24 30 83 43
l31 5h22l39 -41h-25q-21 0 -30.5 -1.5t-26.5 -6.5q-19 -4 -31 -9.5t-22 -17t-10 -27.5q0 -6 5 -14l16 -14l11 -6l11 -5l10 -3l12 -1l19 1q13 0 15 2l24 6l47 14l26 -43zM320 266q-37 25 -71 37t-57 12q-45 0 -74 -22q-31 -19 -31 -53q0 -32 23 -55q11 -9 27 -15l36 -4l19 1
l20 2l19 4l19 6l36 15q14 6 34 22v50z" />
    <glyph glyph-name="quoteleft" unicode="&#x2018;" horiz-adv-x="472" 
d="M317 441l28 -24q9 -7 21 -27l12 -30l5 -30q0 -15 -3 -29.5t-10 -31.5q-27 -66 -96 -102q-30 -15 -72 -24l140 -146l-25 -19l-144 158q-59 0 -91 30l-7 12l-2 18l1 13l4 11l7 7q5 3 11 3l20 -3l20 -9l9 -7l10 -9l9 -11l9 -14h15q14 0 25 3t24 11l18 12l32 28q7 6 20 30
l-19 3l-13 3q-51 11 -72 23q-26 12 -56 34l-8 8l-8 11l-4 6l-4 7l-8 21l-2 20q0 27 22 43l-132 1l-25 53h512l26 -53h-199zM322 384q-6 39 -43 57q-15 9 -39 9q-16 0 -26 -5q-23 -6 -35 -35q-6 -14 -6 -33q0 -57 75 -80q21 -6 45 -6h14q7 0 10 2l7 23q3 9 3 29q0 25 -5 39z
" />
    <glyph glyph-name="quoteright" unicode="&#x2019;" horiz-adv-x="472" 
d="M317 441l28 -24q9 -7 21 -27l12 -30l5 -30q0 -15 -3 -29.5t-10 -31.5q-27 -66 -96 -102q-30 -15 -72 -24l140 -146l-25 -19l-144 158q-59 0 -91 30l-7 12l-2 18l1 13l4 11l7 7q5 3 11 3l20 -3l20 -9l9 -7l10 -9l9 -11l9 -14h15q14 0 25 3t24 11l18 12l32 28q7 6 20 30
l-19 3l-13 3q-51 11 -72 23q-26 12 -56 34l-8 8l-8 11l-4 6l-4 7l-8 21l-2 20q0 27 22 43l-132 1l-25 53h512l26 -53h-199zM322 384q-6 39 -43 57q-15 9 -39 9q-16 0 -26 -5q-23 -6 -35 -35q-6 -14 -6 -33q0 -57 75 -80q21 -6 45 -6h14q7 0 10 2l7 23q3 9 3 29q0 25 -5 39z
" />
    <glyph glyph-name="quotesinglbase" unicode="&#x201a;" horiz-adv-x="215" 
d="M121 441v-443l-54 33v410h-64l-25 53h247l27 -53h-131zM206 601q-18 -9 -54 -21q-17 -5 -36 -5q-14 0 -22 1t-23 7q-40 14 -83 57q-14 16 -28 40q3 9 13 10q27 -33 57 -48l42 -20q21 -6 44 -6q14 0 27 5l35 17q38 23 57 52l40 -30q-16 -29 -69 -59z" />
    <glyph glyph-name="quotedblleft" unicode="&#x201c;" horiz-adv-x="251" 
d="M308 177q-4 -4 -27 -17l-36 -11l-38 -3q-16 0 -24 2l-24 7l-25 12q-15 7 -24 17q-49 37 -49 77v180h-54l-24 53h340v-53h-196l190 -166l4 -11l2 -14v-52q-3 -12 -15 -21zM298 251l-2 7l-4 8l-7 7l-158 137v-200q0 -22 14 -28l20 -4l31 -1h23q8 2 18 5t31 11l26 19
q4 6 8 18v21z" />
    <glyph glyph-name="quotedblright" unicode="&#x201d;" horiz-adv-x="251" 
d="M308 177q-4 -4 -27 -17l-36 -11l-38 -3q-16 0 -24 2l-24 7l-25 12q-15 7 -24 17q-49 37 -49 77v180h-54l-24 53h340v-53h-196l190 -166l4 -11l2 -14v-52q-3 -12 -15 -21zM298 251l-2 7l-4 8l-7 7l-158 137v-200q0 -22 14 -28l20 -4l31 -1h23q8 2 18 5t31 11l26 19
q4 6 8 18v21z" />
    <glyph glyph-name="quotedblbase" unicode="&#x201e;" horiz-adv-x="622" 
d="M552 441v-443l-52 33v85h-115v-33q0 -13 -3.5 -19.5t-13.5 -6.5l-6 2l-4 2l-95 77l-1 6q3 10 16 11l68 1v11q0 32 -23 42t-83 10l-15 -2q-10 -3 -14 -5l-15 -8l-15 -12q-26 -21 -34 -57l-2 -27q0 -42 45 -76l19 -10l26 -12l66 -19l27 -6l30 -7v-22q-101 9 -177 53
q-47 26 -73 57.5t-26 68.5l3 23q2 10 10 24l12 22q8 11 18 18l-15 5l-7 4l-6 3l-6 4l-12 10l-12 13l-15 26l-5 23q0 29 27 47q15 8 42 16l16 4h15l170 1v63h-314l-25 53h667l27 -53h-120zM500 441h-129v-105h-224q-13 0 -23 -5q-29 -9 -29 -46q0 -21 10 -34l12 -13l18 -8
l15 8l23 6l30 4l37 2l32 -1q14 -2 26 -7q50 -13 77 -49q7 -10 10 -27v-10h115v285z" />
    <glyph glyph-name="daggerdbl" unicode="&#x2021;" horiz-adv-x="502" 
d="M430 441v-116h-250q-33 0 -53 -13l-11 -15l-4 -20l3 -10l8 -12l6 -6l7 -6l6 -7l8 -6l27 8l34 7l36 3l38 2q35 0 67.5 -5.5t68.5 -18.5q61 -24 61 -60v-219l-52 20v74q-30 -21 -77 -29l-31 -2q-42 0 -73 17t-31 55q0 43 26 58.5t55 20.5l22 1q12 0 26.5 -0.5t36 -7
t46.5 -25.5v49q0 10 -7 18q-6 12 -20 15l-30 8l-37 3l-51 -2q-61 -7 -117 -40t-56 -76q0 -50 66 -110q40 -37 70 -54q12 -7 31.5 -16t43.5 -19v-22q-96 36 -175 100q-87 69 -87 132q0 42 18 66t53 43l-27 19q-10 11 -18 23l-11 23l-3 26q0 17 24 37l29 10l40 4l211 1v74
h-370l-24 53h524l28 -53h-105zM430 105l-26 12l-23 10l-23 6l-21 2q-28 0 -54 -18t-26 -44l3 -20l10 -13l15 -8l21 -2l31 3q42 9 67 25l26 15v32z" />
    <glyph glyph-name="ellipsis" unicode="&#x2026;" horiz-adv-x="183" 
d="M627 554l-40 33l40 31l39 -31zM665 660l-4 -1l-4 1l-8 4l-8 7l-11 5l-14 3l-15 1l-4 1q-65 0 -83 -54l-4 -36v-18q0 -14 2 -18l1 -6l2 -7l2 -14l4 -15l-14 1q-18 21 -51 44t-69 37l-20 7l-19 8l-59 14l-38 5h-19q-31 0 -50 -8q-50 -14 -72 -53q-9 -17 -9 -37l3 -20l8 -18
l100 1l28 -53h-119v-443l-54 33v410h-64l-25 53h94q-7 5 -9 11l-8 17l-6 17l-1 14q0 23 8.5 41t29.5 35q39 31 106 31q48 0 80 -7q134 -28 224 -108l-8 19l-5 22l-4 22l-1 25q0 24 3.5 38.5t13.5 27.5q18 23 66 23l29 -3q14 -3 29.5 -11t23.5 -16l23 -21l5 -7z" />
    <glyph glyph-name="perthousand" unicode="&#x2030;" horiz-adv-x="708" 
d="M438 441v-179l28 24l30 21l30 12l32 5q24 0 44.5 -13.5t40.5 -39.5q6 -9 13.5 -23.5t11.5 -24.5q9 -23 9 -46q0 -17 -3.5 -29t-15.5 -30l-21 -32q-6 -10 -25 -25l-40 44l26 29l22 32q9 14 13 29l5 24q0 14 -5 22q-5 23 -35 36q-9 3 -26 5q-14 0 -19 -2q-10 0 -18 -5
l-19 -8l-18 -11l-31 -27l-29 -34v-192l-52 28v263h-115q-47 0 -77 -40q-6 -7 -12 -24l-4 -10l-1 -10q0 -7 -2 -11v-10q0 -15 2 -26.5t8 -28.5q6 -22 23 -50l32 -44q9 -13 42 -42h-25l-45 52l-45 54q-22 25 -39 65q-15 31 -15 59l1 16l5 17l8 16l11 16l-91 1l-26 42h365v105
h-379l-27 53h733l28 -53h-303z" />
    <glyph glyph-name="guilsinglleft" unicode="&#x2039;" horiz-adv-x="288" 
d="M313 441l-26 53h105v-53h-79zM382 234l-14 -1l-19 1l-23 6l-46 13l-47 16l-16 6l-16 7l-44 -28l-47 -25l-25 -12l-24 -11l-25 -10q-8 0 -24 -8l-40 32l59 24l22 10l52 25l42 25l-52 24l-37 24q-15 10 -28 28q-5 10 -8 29q0 26 30 53q37 31 90 31q56 0 100.5 -32t44.5 -73
q0 -13 -3.5 -22.5t-13.5 -20.5l-21 -24l-27 -24l118 -35q12 -2 18 -5l15 -6l10 -6l4 -5zM167 461h-12q-21 0 -42 -15q-10 -7 -18 -21l-5 -28q0 -9 6 -23l16 -19l26 -20l34 -18l25 22l20 24l12 22l4 24q0 52 -66 52z" />
    <glyph glyph-name="guilsinglright" unicode="&#x203a;" 
d="M12 556l-39 33l39 31l39 -31zM48 662l-11 2l-12 9l-8 4l-10 3l-10 1l-13 1q-46 0 -66 -28t-20 -69l1 -22l2 -23l2 -12l1 -12l2 -12l2 -11l-13 1q-30 50 -105 114l-52 42q-36 24 -60 27l-60 6l-40 53l6 1l3 2l17 5l15 2q25 0 51 -16l29 -17q13 -6 25 -20l158 -157l-5 23
l-4 24l-3 25l-1 27l-1 16q0 15 4 26t16 24q21 23 58 23q17 0 30 -3t25 -11l25 -16l25 -21l4 -7zM-132 494l-43 30q-13 9 -47 23q-52 19 -93 19l-28 -10l-53 33l-1 6l2 3l3 5l4 4l6 4l16 6l24 2l27 -6l26 -7l27 -11l26 -14q32 -16 87 -61l32 -27z" />
    <glyph glyph-name="trademark" unicode="&#x2122;" horiz-adv-x="278" 
d="M7 441l-27 53h408v-53h-381zM362 244q-9 14 -30 27q-9 5 -21.5 11t-30.5 12l-32 9l-32 7l-32 3l-32 2l-1 -27l-1 -17q-4 -28 -23 -31q-14 0 -33 13q-26 22 -40 45l-7 26q0 31 91 31q35 0 71 -7q64 -12 126 -55q29 -19 53 -43zM205 147l2 -17l3 -17l1 -14l1 -5
q0 -20 -15 -23l-15 2l-16 9l-62 39l-6 6l-4 5l-1 6q0 7 9 16l25 12l261 85v-41z" />
  </font>
</defs>
</svg>
